<?xml version="1.0" standalone="no"?>
<!DOCTYPE svg PUBLIC "-//W3C//DTD SVG 1.1//EN" "http://www.w3.org/Graphics/SVG/1.1/DTD/svg11.dtd" >
<!--
2019-7-11: Created with FontForge (http://fontforge.org)
-->
<svg xmlns="http://www.w3.org/2000/svg" xmlns:xlink="http://www.w3.org/1999/xlink" version="1.1">
<metadata>
Created by FontForge 20190427 at Thu Jul 11 11:48:32 2019
 By Unknown
The Fork Awesome font is licensed under the SIL OFL 1.1 (http://scripts.sil.org/OFL). Fork Awesome is a fork based of off Font Awesome 4.7.0 by Dave Gandy. More info on licenses at https://forkawesome.github.io
</metadata>
<defs>
<font id="forkawesome" horiz-adv-x="1536" >
  <font-face 
    font-family="forkawesome"
    font-weight="400"
    font-stretch="normal"
    units-per-em="1792"
    panose-1="2 0 5 3 0 0 0 0 0 0"
    ascent="1536"
    descent="-256"
    bbox="-0.653061 -264 2304.01 1538"
    underline-thickness="89.6"
    underline-position="-179.2"
    unicode-range="U+0020-F330"
  />
    <missing-glyph />
    <glyph glyph-name="space" unicode=" " horiz-adv-x="200" 
 />
    <glyph glyph-name="500px" unicode="&#xf26e;" horiz-adv-x="1394" 
d="M1387 -11l-6 -6c-75 -75 -162 -134 -259 -175c-101 -42 -207 -64 -317 -64s-217 22 -317 64c-97 41 -185 100 -259 175c-75 74 -134 161 -175 258c-25 61 -45 124 -54 189c-4 28 35 34 48 36c31 5 52 3 56 -20c1 -1 1 -2 1 -4c4 -20 14 -80 46 -159
c33 -82 84 -158 152 -226c65 -65 141 -116 226 -152c87 -37 180 -56 276 -56c95 0 188 19 276 56c84 36 160 87 225 152l6 6c7 7 15 9 25 6c9 -2 20 -10 33 -22c32 -33 25 -49 17 -58zM915 604l-66 -66l63 -63c7 -7 20 -22 -7 -49c-11 -11 -22 -17 -32 -17
c-7 0 -13 3 -19 10l-62 61l-66 -66c-2 -2 -7 -5 -15 -5c-9 0 -20 5 -31 16l-2 2c-7 6 -18 17 -18 29c0 6 3 11 8 17l66 65l-66 66c-11 11 -6 25 14 45c12 12 22 18 31 18c5 0 9 -2 13 -5l65 -66l65 65c11 11 29 6 48 -13c12 -12 25 -29 11 -44zM1386 547
c0 -79 -16 -156 -46 -228c-30 -70 -72 -132 -126 -186s-117 -96 -187 -126c-72 -31 -149 -46 -228 -46s-156 15 -228 46c-70 30 -133 72 -187 126s-96 116 -125 186c-6 13 -15 38 -15 40h-1c-9 28 31 40 43 44c29 9 51 13 60 -12c24 -64 61 -126 97 -167h1v341
c2 84 37 169 102 232c67 66 157 103 253 103c196 0 355 -158 355 -352c0 -196 -160 -355 -355 -355c-39 0 -68 3 -112 16c-5 2 -28 12 -13 61c4 13 16 51 44 43c2 0 51 -12 77 -12c139 0 248 108 248 246c0 65 -26 126 -72 171c-46 46 -108 71 -175 71
c-69 0 -132 -28 -178 -80c-40 -45 -64 -105 -64 -160v-413c72 -44 155 -67 242 -67c128 0 252 51 341 140c90 90 140 211 140 338c0 128 -50 248 -141 339c-90 90 -210 140 -339 140s-250 -50 -340 -140c-1 -1 -58 -60 -77 -87l-2 -2c-12 -17 -23 -33 -73 -22
c-25 6 -52 21 -52 43v680c0 18 14 38 38 38h877c30 0 30 -42 30 -55c0 -14 0 -55 -30 -55h-811v-483h1c56 59 153 121 210 145c71 30 151 46 231 46c79 0 156 -15 228 -46c70 -30 133 -72 187 -126s96 -116 126 -186c30 -73 46 -149 46 -229zM1355 1128
c19 -17 6 -35 -13 -57c-12 -12 -25 -26 -39 -26c-6 0 -11 2 -16 7c-72 62 -137 104 -207 133c-87 38 -180 56 -276 56c-85 0 -178 -17 -262 -49c-26 -10 -40 24 -45 37c-6 16 -9 29 -8 38c2 10 7 17 16 20c82 36 194 57 299 57c109 0 216 -22 316 -64
c92 -39 167 -87 235 -152z" />
    <glyph glyph-name="activitypub" unicode="&#xf2f2;" horiz-adv-x="2032" 
d="M924 1280v-1280l-185 107v853l-739 -427v214zM1109 1280l923 -533v-214l-923 -533v213l739 427l-739 427v213zM1109 853l369 -213l-369 -213v426zM554 640v-427l-369 214z" />
    <glyph glyph-name="address-book" unicode="&#xf2b9;" horiz-adv-x="1664" 
d="M1201 298c0 177 -43 374 -221 374c-55 -32 -130 -87 -212 -87s-157 55 -212 87c-178 0 -221 -197 -221 -374c0 -99 65 -170 145 -170h576c80 0 145 71 145 170zM1028 892c0 144 -117 260 -260 260s-260 -116 -260 -260c0 -143 117 -259 260 -259s260 116 260 259z
M1664 352v-192c0 -18 -14 -32 -32 -32h-96v-224c0 -88 -72 -160 -160 -160h-1216c-88 0 -160 72 -160 160v1472c0 88 72 160 160 160h1216c88 0 160 -72 160 -160v-224h96c18 0 32 -14 32 -32v-192c0 -18 -14 -32 -32 -32h-96v-128h96c18 0 32 -14 32 -32v-192
c0 -18 -14 -32 -32 -32h-96v-128h96c18 0 32 -14 32 -32z" />
    <glyph glyph-name="address-book-o" unicode="&#xf2ba;" horiz-adv-x="1664" 
d="M1028 892c0 -143 -117 -259 -260 -259s-260 116 -260 259c0 144 117 260 260 260s260 -116 260 -260zM980 672c191 0 221 -227 221 -374c0 -84 -53 -170 -145 -170h-576c-92 0 -145 86 -145 170c0 141 30 374 216 374h5c66 -39 133 -87 212 -87s146 48 212 87zM1664 928
c0 -17 -15 -32 -32 -32h-96v-128h96c17 0 32 -15 32 -32v-192c0 -17 -15 -32 -32 -32h-96v-128h96c17 0 32 -15 32 -32v-192c0 -17 -15 -32 -32 -32h-96v-224c0 -88 -72 -160 -160 -160h-1216c-88 0 -160 72 -160 160v1472c0 88 72 160 160 160h1216c88 0 160 -72 160 -160
v-224h96c17 0 32 -15 32 -32v-192zM1408 -96v1472c0 17 -15 32 -32 32h-1216c-17 0 -32 -15 -32 -32v-1472c0 -17 15 -32 32 -32h1216c17 0 32 15 32 32z" />
    <glyph glyph-name="address-card" unicode="&#xf2bb;" horiz-adv-x="2048" 
d="M1024 405c0 155 -38 327 -196 327c-49 -28 -115 -76 -188 -76s-139 48 -188 76c-158 0 -196 -172 -196 -327c0 -87 57 -149 128 -149h512c71 0 128 62 128 149zM867 925c0 125 -102 227 -227 227s-227 -102 -227 -227c0 -126 102 -227 227 -227s227 101 227 227z
M1792 416v64c0 18 -14 32 -32 32h-576c-18 0 -32 -14 -32 -32v-64c0 -18 14 -32 32 -32h576c18 0 32 14 32 32zM1792 676v56c0 20 -16 36 -36 36h-568c-20 0 -36 -16 -36 -36v-56c0 -20 16 -36 36 -36h568c20 0 36 16 36 36zM1792 928v64c0 18 -14 32 -32 32h-576
c-18 0 -32 -14 -32 -32v-64c0 -18 14 -32 32 -32h576c18 0 32 14 32 32zM2048 1248v-1216c0 -88 -72 -160 -160 -160h-352v96c0 18 -14 32 -32 32h-64c-18 0 -32 -14 -32 -32v-96h-768v96c0 18 -14 32 -32 32h-64c-18 0 -32 -14 -32 -32v-96h-352c-88 0 -160 72 -160 160
v1216c0 88 72 160 160 160h1728c88 0 160 -72 160 -160z" />
    <glyph glyph-name="address-card-o" unicode="&#xf2bc;" horiz-adv-x="2048" 
d="M1024 405c0 -87 -57 -149 -128 -149h-512c-71 0 -128 62 -128 149c0 155 38 327 196 327c49 -28 115 -76 188 -76s139 48 188 76c158 0 196 -172 196 -327zM867 925c0 -126 -102 -227 -227 -227s-227 101 -227 227c0 125 102 227 227 227s227 -102 227 -227zM1792 480
v-64c0 -18 -14 -32 -32 -32h-576c-18 0 -32 14 -32 32v64c0 18 14 32 32 32h576c18 0 32 -14 32 -32zM1792 732v-56c0 -20 -16 -36 -36 -36h-568c-20 0 -36 16 -36 36v56c0 20 16 36 36 36h568c20 0 36 -16 36 -36zM1792 992v-64c0 -18 -14 -32 -32 -32h-576
c-18 0 -32 14 -32 32v64c0 18 14 32 32 32h576c18 0 32 -14 32 -32zM1920 32v1216c0 17 -15 32 -32 32h-1728c-17 0 -32 -15 -32 -32v-1216c0 -17 15 -32 32 -32h352v96c0 18 14 32 32 32h64c18 0 32 -14 32 -32v-96h768v96c0 18 14 32 32 32h64c18 0 32 -14 32 -32v-96h352
c17 0 32 15 32 32zM2048 1248v-1216c0 -88 -72 -160 -160 -160h-1728c-88 0 -160 72 -160 160v1216c0 88 72 160 160 160h1728c88 0 160 -72 160 -160z" />
    <glyph glyph-name="adjust" unicode="&#xf042;" 
d="M768 96v1088c-300 0 -544 -244 -544 -544s244 -544 544 -544zM1536 640c0 -424 -344 -768 -768 -768s-768 344 -768 768s344 768 768 768s768 -344 768 -768z" />
    <glyph glyph-name="adn" unicode="&#xf170;" 
d="M768 914l201 -306h-402zM1133 384h94l-459 691l-459 -691h94l104 160h522zM1536 640c0 -424 -344 -768 -768 -768s-768 344 -768 768s344 768 768 768s768 -344 768 -768z" />
    <glyph glyph-name="align-center" unicode="&#xf037;" horiz-adv-x="1792" 
d="M1792 192v-128c0 -35 -29 -64 -64 -64h-1664c-35 0 -64 29 -64 64v128c0 35 29 64 64 64h1664c35 0 64 -29 64 -64zM1408 576v-128c0 -35 -29 -64 -64 -64h-896c-35 0 -64 29 -64 64v128c0 35 29 64 64 64h896c35 0 64 -29 64 -64zM1664 960v-128c0 -35 -29 -64 -64 -64
h-1408c-35 0 -64 29 -64 64v128c0 35 29 64 64 64h1408c35 0 64 -29 64 -64zM1280 1344v-128c0 -35 -29 -64 -64 -64h-640c-35 0 -64 29 -64 64v128c0 35 29 64 64 64h640c35 0 64 -29 64 -64z" />
    <glyph glyph-name="align-justify" unicode="&#xf039;" horiz-adv-x="1792" 
d="M1792 192v-128c0 -35 -29 -64 -64 -64h-1664c-35 0 -64 29 -64 64v128c0 35 29 64 64 64h1664c35 0 64 -29 64 -64zM1792 576v-128c0 -35 -29 -64 -64 -64h-1664c-35 0 -64 29 -64 64v128c0 35 29 64 64 64h1664c35 0 64 -29 64 -64zM1792 960v-128
c0 -35 -29 -64 -64 -64h-1664c-35 0 -64 29 -64 64v128c0 35 29 64 64 64h1664c35 0 64 -29 64 -64zM1792 1344v-128c0 -35 -29 -64 -64 -64h-1664c-35 0 -64 29 -64 64v128c0 35 29 64 64 64h1664c35 0 64 -29 64 -64z" />
    <glyph glyph-name="align-left" unicode="&#xf036;" horiz-adv-x="1792" 
d="M1792 192v-128c0 -35 -29 -64 -64 -64h-1664c-35 0 -64 29 -64 64v128c0 35 29 64 64 64h1664c35 0 64 -29 64 -64zM1408 576v-128c0 -35 -29 -64 -64 -64h-1280c-35 0 -64 29 -64 64v128c0 35 29 64 64 64h1280c35 0 64 -29 64 -64zM1664 960v-128
c0 -35 -29 -64 -64 -64h-1536c-35 0 -64 29 -64 64v128c0 35 29 64 64 64h1536c35 0 64 -29 64 -64zM1280 1344v-128c0 -35 -29 -64 -64 -64h-1152c-35 0 -64 29 -64 64v128c0 35 29 64 64 64h1152c35 0 64 -29 64 -64z" />
    <glyph glyph-name="align-right" unicode="&#xf038;" horiz-adv-x="1792" 
d="M1792 192v-128c0 -35 -29 -64 -64 -64h-1664c-35 0 -64 29 -64 64v128c0 35 29 64 64 64h1664c35 0 64 -29 64 -64zM1792 576v-128c0 -35 -29 -64 -64 -64h-1280c-35 0 -64 29 -64 64v128c0 35 29 64 64 64h1280c35 0 64 -29 64 -64zM1792 960v-128
c0 -35 -29 -64 -64 -64h-1536c-35 0 -64 29 -64 64v128c0 35 29 64 64 64h1536c35 0 64 -29 64 -64zM1792 1344v-128c0 -35 -29 -64 -64 -64h-1152c-35 0 -64 29 -64 64v128c0 35 29 64 64 64h1152c35 0 64 -29 64 -64z" />
    <glyph glyph-name="amazon" unicode="&#xf270;" horiz-adv-x="1736" 
d="M1523 60c30 15 53 -8 22 -48s-280 -268 -698 -268s-738 286 -836 404c-27 31 4 45 22 33c293 -178 751 -471 1490 -121zM1730 175c15 -20 0 -108 -26 -172c-26 -63 -64 -107 -85 -124c-22 -18 -38 -11 -26 15s77 186 51 220c-26 33 -148 17 -192 13c-43 -4 -52 -8 -56 1
c-9 23 87 62 150 70c63 7 164 3 184 -23zM1336 618c0 -110 129 -211 129 -211l-227 -224c-89 84 -156 154 -156 154c-10 10 -18 22 -25 33c-181 -283 -734 -265 -734 173c0 408 483 463 678 470v127c0 27 10 150 -142 150c0 0 -152 0 -217 -198l-294 27
c0 197 187 417 539 417c351 0 449 -228 449 -329v-589zM664 597c0 -203 337 -251 337 69v162c-135 -4 -337 -42 -337 -231z" />
    <glyph glyph-name="ambulance" unicode="&#xf0f9;" horiz-adv-x="1856" 
d="M576 128c0 71 -57 128 -128 128s-128 -57 -128 -128s57 -128 128 -128s128 57 128 128zM192 640h384v256h-158c-6 -1 -17 -5 -22 -9l-195 -195c-3 -5 -8 -16 -9 -22v-30zM1472 128c0 71 -57 128 -128 128s-128 -57 -128 -128s57 -128 128 -128s128 57 128 128zM1600 800
v192c0 18 -14 32 -32 32h-224v224c0 18 -14 32 -32 32h-192c-18 0 -32 -14 -32 -32v-224h-224c-18 0 -32 -14 -32 -32v-192c0 -18 14 -32 32 -32h224v-224c0 -18 14 -32 32 -32h192c18 0 32 14 32 32v224h224c18 0 32 14 32 32zM1856 1344v-1152c0 -35 -29 -64 -64 -64h-192
c0 -141 -114 -256 -256 -256c-141 0 -256 115 -256 256h-384c0 -141 -114 -256 -256 -256s-256 115 -256 256h-128c-35 0 -64 29 -64 64s29 64 64 64v416c0 35 20 84 45 109l198 198c25 25 74 45 109 45h160v320c0 35 29 64 64 64h1152c35 0 64 -29 64 -64z" />
    <glyph glyph-name="american-sign-language-interpreting" unicode="&#xf2a3;" horiz-adv-x="2303" 
d="M1032 576c-35 1 -68 21 -84 55c-22 45 -66 73 -116 73c-71 0 -128 -57 -128 -128c0 -34 12 -67 36 -89l10 -8c22 -20 51 -31 82 -31c50 0 94 28 116 73c16 34 49 54 84 55zM1600 704c0 34 -12 67 -36 89l-10 8c-22 20 -51 31 -82 31c-50 0 -94 -28 -116 -73
c-16 -34 -49 -54 -84 -55c35 -1 68 -21 84 -55c22 -45 66 -73 116 -73c71 0 128 57 128 128zM1174 925c-23 -47 -81 -67 -128 -44c-42 21 -87 31 -134 31c-35 0 -68 -6 -99 -17c6 0 13 1 19 1c123 0 236 -72 289 -183c23 -48 2 -105 -46 -128c-12 -6 -25 -9 -39 -9
c14 0 27 -3 39 -9c48 -23 69 -80 46 -128c-53 -111 -166 -183 -289 -183h-6c-15 2 -29 3 -44 4l-290 27l-239 -120c-10 -5 -19 -7 -29 -7c-23 0 -46 13 -57 35l-160 320c-15 31 -4 68 25 85l209 119l148 267c23 206 125 395 287 528c41 34 102 28 135 -13
c34 -41 28 -101 -13 -135c-45 -38 -85 -81 -117 -128c78 53 168 89 267 101c53 7 101 -30 107 -83c7 -53 -30 -101 -83 -107c-58 -7 -112 -27 -159 -55c32 7 65 10 99 10c76 0 150 -17 218 -50c48 -24 68 -81 44 -129zM2137 1085l160 -320c15 -31 4 -68 -25 -85l-209 -119
l-148 -267c-23 -206 -125 -395 -287 -528c-18 -15 -40 -22 -61 -22c-28 0 -55 12 -74 35c-34 41 -28 101 13 135c45 38 85 81 117 128c-78 -53 -168 -89 -267 -101c-4 -1 -8 -1 -12 -1c-48 0 -89 36 -95 84c-7 53 30 101 83 107c58 7 112 27 159 55c-32 -7 -65 -10 -99 -10
c-76 0 -150 17 -218 50c-48 24 -68 81 -44 129c23 47 81 67 128 44c42 -21 87 -31 134 -31c35 0 68 6 99 17c-6 0 -13 -1 -19 -1c-123 0 -236 72 -289 183c-23 48 -2 105 46 128c12 6 25 9 39 9c-14 0 -27 3 -39 9c-48 23 -69 80 -46 128c53 111 166 183 289 183h7
c14 -2 28 -3 42 -4l291 -27l239 120c10 5 19 7 29 7c23 0 46 -13 57 -35z" />
    <glyph glyph-name="anchor" unicode="&#xf13d;" horiz-adv-x="1792" 
d="M960 1280c0 35 -29 64 -64 64s-64 -29 -64 -64s29 -64 64 -64s64 29 64 64zM1792 352v-352c0 -13 -8 -25 -20 -30c-4 -1 -8 -2 -12 -2c-8 0 -16 3 -23 9l-93 93c-157 -189 -439 -310 -748 -310s-591 121 -748 310l-93 -93c-6 -6 -15 -9 -23 -9c-4 0 -8 1 -12 2
c-12 5 -20 17 -20 30v352c0 18 14 32 32 32h352c13 0 25 -8 30 -20s2 -25 -7 -35l-100 -100c90 -121 263 -209 461 -236v647h-192c-35 0 -64 29 -64 64v128c0 35 29 64 64 64h192v163c-76 44 -128 126 -128 221c0 141 115 256 256 256s256 -115 256 -256
c0 -95 -52 -177 -128 -221v-163h192c35 0 64 -29 64 -64v-128c0 -35 -29 -64 -64 -64h-192v-647c198 27 371 115 461 236l-100 100c-9 10 -12 23 -7 35s17 20 30 20h352c18 0 32 -14 32 -32z" />
    <glyph glyph-name="android" unicode="&#xf17b;" horiz-adv-x="1408" 
d="M493 1053c22 0 39 18 39 39s-17 39 -39 39c-21 0 -38 -18 -38 -39s17 -39 38 -39zM915 1053c21 0 38 18 38 39s-17 39 -38 39c-22 0 -39 -18 -39 -39s17 -39 39 -39zM103 869c56 0 102 -46 102 -102v-430c0 -57 -45 -103 -102 -103s-103 46 -103 103v430
c0 56 46 102 103 102zM1163 850v-666c0 -61 -49 -110 -109 -110h-75v-227c0 -57 -46 -103 -103 -103s-103 46 -103 103v227h-138v-227c0 -57 -46 -103 -103 -103c-56 0 -102 46 -102 103l-1 227h-74c-61 0 -110 49 -110 110v666h918zM931 1255c140 -72 235 -210 235 -369
h-925c0 159 95 297 236 369l-71 131c-4 7 -2 16 5 20c7 3 16 1 20 -6l72 -132c61 27 129 42 201 42s140 -15 201 -42l72 132c4 7 13 9 20 6c7 -4 9 -13 5 -20zM1408 767v-430c0 -57 -46 -103 -103 -103c-56 0 -102 46 -102 103v430c0 57 46 102 102 102
c57 0 103 -45 103 -102z" />
    <glyph glyph-name="angellist" unicode="&#xf209;" horiz-adv-x="1258" 
d="M942 1158l-114 -328l117 -21c30 82 165 451 165 518c0 25 -8 56 -38 56c-56 0 -116 -182 -130 -225zM643 471c11 -29 23 -58 33 -88c22 25 45 48 71 67c-35 7 -70 10 -104 21zM351 1367c0 -102 121 -420 159 -521c14 8 32 10 49 10c24 0 51 -3 75 -5l-121 351
c-13 38 -71 220 -123 220c-27 0 -39 -32 -39 -55zM272 608c0 -73 196 -342 269 -342c20 0 37 22 37 40c0 23 -23 80 -32 102c-26 67 -121 274 -203 274c-27 0 -71 -47 -71 -74zM114 273c0 -36 12 -71 25 -104c79 -195 257 -309 465 -309c152 0 280 58 382 170
c108 120 152 268 152 427c0 56 1 145 -43 185c-84 74 -369 102 -482 102c-14 0 -38 -1 -49 -11c-12 -5 -12 -24 -12 -35c0 -153 323 -139 420 -139c19 0 28 -5 40 -19c13 -16 17 -35 19 -55c-26 -26 -62 -41 -96 -54c-33 -12 -65 -25 -93 -46c-77 -56 -153 -152 -153 -251
c0 -62 37 -115 37 -176c0 -1 -7 -23 -7 -26c-114 8 -142 121 -146 216c-12 -3 -28 -2 -41 -2c2 -7 2 -14 2 -21c0 -73 -65 -126 -135 -126c-108 0 -251 127 -251 237c0 30 13 47 33 67c20 -25 41 -50 60 -76c29 -39 79 -104 133 -104c14 0 41 12 41 29
c0 45 -164 256 -204 256c-63 0 -97 -83 -97 -135zM0 264c0 130 50 216 179 251c-11 29 -28 73 -28 104c0 82 101 184 183 184c24 0 48 -7 70 -15c-42 119 -163 454 -163 567c0 101 51 181 160 181c140 0 299 -504 333 -604c44 110 182 571 338 571c98 0 153 -78 153 -171
c0 -106 -118 -436 -159 -550c168 -41 192 -177 192 -328c0 -400 -255 -710 -668 -710c-76 0 -151 15 -223 42c-190 72 -367 267 -367 478z" />
    <glyph glyph-name="angle-double-down" unicode="&#xf103;" horiz-adv-x="998" 
d="M998 672c0 -8 -4 -17 -10 -23l-466 -466c-6 -6 -15 -10 -23 -10s-17 4 -23 10l-466 466c-6 6 -10 15 -10 23s4 17 10 23l50 50c6 6 14 10 23 10c8 0 17 -4 23 -10l393 -393l393 393c6 6 15 10 23 10s17 -4 23 -10l50 -50c6 -6 10 -15 10 -23zM998 1056
c0 -8 -4 -17 -10 -23l-466 -466c-6 -6 -15 -10 -23 -10s-17 4 -23 10l-466 466c-6 6 -10 15 -10 23s4 17 10 23l50 50c6 6 14 10 23 10c8 0 17 -4 23 -10l393 -393l393 393c6 6 15 10 23 10s17 -4 23 -10l50 -50c6 -6 10 -15 10 -23z" />
    <glyph glyph-name="angle-double-left" unicode="&#xf100;" horiz-adv-x="966" 
d="M582 160c0 -8 -4 -17 -10 -23l-50 -50c-6 -6 -15 -10 -23 -10s-17 4 -23 10l-466 466c-6 6 -10 15 -10 23s4 17 10 23l466 466c6 6 15 10 23 10s17 -4 23 -10l50 -50c6 -6 10 -15 10 -23s-4 -17 -10 -23l-393 -393l393 -393c6 -6 10 -15 10 -23zM966 160
c0 -8 -4 -17 -10 -23l-50 -50c-6 -6 -15 -10 -23 -10s-17 4 -23 10l-466 466c-6 6 -10 15 -10 23s4 17 10 23l466 466c6 6 15 10 23 10s17 -4 23 -10l50 -50c6 -6 10 -15 10 -23s-4 -17 -10 -23l-393 -393l393 -393c6 -6 10 -15 10 -23z" />
    <glyph glyph-name="angle-double-right" unicode="&#xf101;" horiz-adv-x="966" 
d="M582 576c0 -8 -4 -17 -10 -23l-466 -466c-6 -6 -15 -10 -23 -10s-17 4 -23 10l-50 50c-6 6 -10 15 -10 23s4 17 10 23l393 393l-393 393c-6 6 -10 15 -10 23s4 17 10 23l50 50c6 6 15 10 23 10s17 -4 23 -10l466 -466c6 -6 10 -15 10 -23zM966 576c0 -8 -4 -17 -10 -23
l-466 -466c-6 -6 -15 -10 -23 -10s-17 4 -23 10l-50 50c-6 6 -10 15 -10 23s4 17 10 23l393 393l-393 393c-6 6 -10 15 -10 23s4 17 10 23l50 50c6 6 15 10 23 10s17 -4 23 -10l466 -466c6 -6 10 -15 10 -23z" />
    <glyph glyph-name="angle-double-up" unicode="&#xf102;" horiz-adv-x="998" 
d="M998 224c0 -8 -4 -17 -10 -23l-50 -50c-6 -6 -14 -10 -23 -10c-8 0 -17 4 -23 10l-393 393l-393 -393c-6 -6 -15 -10 -23 -10s-17 4 -23 10l-50 50c-6 6 -10 15 -10 23s4 17 10 23l466 466c6 6 15 10 23 10s17 -4 23 -10l466 -466c6 -6 10 -15 10 -23zM998 608
c0 -8 -4 -17 -10 -23l-50 -50c-6 -6 -14 -10 -23 -10c-8 0 -17 4 -23 10l-393 393l-393 -393c-6 -6 -15 -10 -23 -10s-17 4 -23 10l-50 50c-6 6 -10 15 -10 23s4 17 10 23l466 466c6 6 15 10 23 10s17 -4 23 -10l466 -466c6 -6 10 -15 10 -23z" />
    <glyph glyph-name="angle-down" unicode="&#xf107;" horiz-adv-x="998" 
d="M998 800c0 -8 -4 -17 -10 -23l-466 -466c-6 -6 -15 -10 -23 -10s-17 4 -23 10l-466 466c-6 6 -10 15 -10 23s4 17 10 23l50 50c6 6 14 10 23 10c8 0 17 -4 23 -10l393 -393l393 393c6 6 15 10 23 10s17 -4 23 -10l50 -50c6 -6 10 -15 10 -23z" />
    <glyph glyph-name="angle-left" unicode="&#xf104;" horiz-adv-x="582" 
d="M582 992c0 -8 -4 -17 -10 -23l-393 -393l393 -393c6 -6 10 -15 10 -23s-4 -17 -10 -23l-50 -50c-6 -6 -15 -10 -23 -10s-17 4 -23 10l-466 466c-6 6 -10 15 -10 23s4 17 10 23l466 466c6 6 15 10 23 10s17 -4 23 -10l50 -50c6 -6 10 -14 10 -23z" />
    <glyph glyph-name="angle-right" unicode="&#xf105;" horiz-adv-x="582" 
d="M582 576c0 -8 -4 -17 -10 -23l-466 -466c-6 -6 -15 -10 -23 -10s-17 4 -23 10l-50 50c-6 6 -10 14 -10 23c0 8 4 17 10 23l393 393l-393 393c-6 6 -10 15 -10 23s4 17 10 23l50 50c6 6 15 10 23 10s17 -4 23 -10l466 -466c6 -6 10 -15 10 -23z" />
    <glyph glyph-name="angle-up" unicode="&#xf106;" horiz-adv-x="998" 
d="M998 352c0 -8 -4 -17 -10 -23l-50 -50c-6 -6 -14 -10 -23 -10c-8 0 -17 4 -23 10l-393 393l-393 -393c-6 -6 -15 -10 -23 -10s-17 4 -23 10l-50 50c-6 6 -10 15 -10 23s4 17 10 23l466 466c6 6 15 10 23 10s17 -4 23 -10l466 -466c6 -6 10 -15 10 -23z" />
    <glyph glyph-name="apple" unicode="&#xf179;" horiz-adv-x="1393" 
d="M1393 321c-25 -79 -65 -163 -123 -250c-86 -131 -172 -196 -257 -196c-34 0 -80 11 -140 32c-59 22 -110 32 -151 32c-40 0 -88 -11 -142 -33c-55 -23 -99 -34 -132 -34c-103 0 -202 87 -301 259c-97 172 -147 339 -147 503c0 153 38 277 113 374c75 96 169 144 284 144
c49 0 107 -10 177 -30c69 -20 115 -30 138 -30c29 0 77 11 143 34c66 22 124 34 173 34c80 0 151 -22 213 -65c35 -24 70 -58 104 -100c-52 -44 -90 -83 -114 -118c-43 -62 -65 -131 -65 -207c0 -82 23 -157 69 -223s99 -108 158 -126zM1017 1494c0 -41 -10 -87 -29 -136
c-20 -50 -51 -96 -93 -138c-36 -36 -72 -60 -108 -72c-23 -7 -57 -13 -104 -17c2 99 28 185 78 257s134 121 250 148c2 -9 4 -16 5 -22c0 -7 1 -13 1 -20z" />
    <glyph glyph-name="archive" unicode="&#xf187;" horiz-adv-x="1664" 
d="M1024 704c0 35 -29 64 -64 64h-256c-35 0 -64 -29 -64 -64s29 -64 64 -64h256c35 0 64 29 64 64zM1600 896v-960c0 -35 -29 -64 -64 -64h-1408c-35 0 -64 29 -64 64v960c0 35 29 64 64 64h1408c35 0 64 -29 64 -64zM1664 1344v-256c0 -35 -29 -64 -64 -64h-1536
c-35 0 -64 29 -64 64v256c0 35 29 64 64 64h1536c35 0 64 -29 64 -64z" />
    <glyph glyph-name="archive-org" unicode="&#xf2fc;" horiz-adv-x="1506" 
d="M1459 1344l-27 -53h-1385l-24 53l717 189zM1430 1237v-140h-1380v140h1380zM1257 442c-3 65 -4 124 -3 178c0 25 1 61 3 108s3 77 3 91c1 22 3 57 5 104s4 82 5 107c0 1 1 3 1 7v10c47 10 93 10 138 0c21 -325 21 -630 0 -916c-41 -11 -82 -12 -123 -1c-6 1 -10 2 -11 2
s-3 2 -3 3s-1 4 -1 9c-3 34 -6 90 -10 165zM80 369v0c-1 9 -1 22 -1 38c0 5 -1 11 -1 21s-1 17 -1 22c0 26 0 45 -1 57v219c2 38 3 68 3 88c2 32 3 56 3 71c1 7 1 15 1 26c0 3 1 9 1 17s1 14 1 18c0 7 0 10 1 12c0 12 0 22 1 28c0 11 1 20 2 27c0 11 0 19 1 24c0 4 2 6 7 7
c29 10 61 13 96 8c11 -2 22 -5 32 -9c2 0 3 -2 3 -6c2 -42 4 -74 6 -97c1 -20 2 -50 3 -90s2 -69 2 -88s1 -47 1 -85s1 -66 2 -84c-3 -131 -4 -199 -4 -206c-1 -47 -3 -112 -7 -194c-2 -27 -3 -47 -3 -60c0 -3 -2 -5 -6 -6c-28 -9 -59 -11 -94 -8c-4 1 -10 3 -18 5
s-12 4 -14 5c-4 0 -6 1 -6 4c0 12 0 21 -1 26c0 4 -1 8 -1 14s-1 10 -1 13c0 9 0 15 -1 20c0 6 -1 13 -1 24v25c-1 6 -2 14 -2 25s0 19 -1 25c0 17 -1 30 -2 40v24zM464 255v0v25s-1 19 -1 25c-1 10 -1 23 -1 40c-1 5 -2 13 -2 24c0 16 0 29 -1 38v43c-1 13 -2 32 -2 57v29
s-1 21 -1 27v102c0 27 0 47 1 61c0 18 1 48 3 88c0 17 1 40 3 71c0 11 0 20 1 26c0 15 1 27 2 35v12c0 4 1 9 1 15v13s1 7 2 13s1 10 1 14l2 24c0 4 1 6 5 7c30 10 62 13 96 8c11 -2 22 -5 32 -9c4 0 6 -2 6 -6l4 -97l4 -178c2 -78 3 -135 3 -169c0 -24 -1 -59 -1 -104
s-1 -79 -2 -102c-1 -47 -3 -112 -7 -194c0 -13 -1 -33 -3 -60c0 -3 -2 -5 -7 -6c-26 -10 -57 -12 -92 -8c-4 0 -7 1 -11 2s-8 3 -13 4s-8 3 -10 4c-2 0 -3 1 -3 4c-1 7 -1 15 -1 26c-1 7 -2 16 -2 27c-2 4 -3 10 -3 20zM1046 961v0c1 -26 3 -63 4 -114s2 -89 2 -114
c2 -67 3 -113 3 -140c0 -22 -1 -53 -1 -95s-1 -73 -2 -94c-1 -45 -3 -111 -7 -199c-1 -8 -2 -20 -2 -36s0 -28 -1 -36c0 -3 -2 -5 -7 -6c-27 -9 -58 -11 -93 -8c-5 1 -12 2 -20 5s-12 5 -13 5c-3 0 -5 1 -5 5c0 12 0 31 -2 56s-4 45 -5 58c0 15 -1 40 -2 73s-2 59 -3 77
c0 13 -1 33 -2 60s-1 47 -1 60v68c-1 46 -1 69 0 70c1 55 3 136 7 242c2 48 4 94 8 139c0 4 2 6 6 7c29 10 61 13 95 8c12 -2 23 -5 33 -9c3 0 4 -2 4 -6zM60 -18v98h1390v-98h-1390zM0 -128v73h1506v-73h-1506z" />
    <glyph glyph-name="archlinux" unicode="&#xf323;" horiz-adv-x="1794" 
d="M897 1538c164 -386 203 -504 682 -1397c-61 36 -138 70 -247 98c158 -81 236 -156 310 -214c47 -87 97 -179 152 -281c-281 162 -499 263 -702 303c7 31 11 64 12 98c5 182 -83 337 -195 347s-207 -131 -212 -313v-9c0 -43 4 -84 13 -122c-205 -39 -426 -140 -710 -304
c362 650 540 989 654 1226c60 -50 139 -99 256 -147c-109 76 -175 143 -230 201c89 190 137 318 217 514z" />
    <glyph glyph-name="area-chart" unicode="&#xf1fe;" horiz-adv-x="2048" 
d="M2048 0v-128h-2048v1536h128v-1408h1920zM1664 1024l256 -896h-1664v576l448 576l576 -576z" />
    <glyph glyph-name="arrow-circle-down" unicode="&#xf0ab;" 
d="M1284 639c0 17 -6 33 -18 45l-91 91c-12 12 -28 18 -45 18s-33 -6 -45 -18l-189 -189v502c0 35 -29 64 -64 64h-128c-35 0 -64 -29 -64 -64v-502l-189 189c-12 12 -28 19 -45 19s-33 -7 -45 -19l-91 -91c-12 -12 -18 -28 -18 -45s6 -33 18 -45l362 -362l91 -91
c12 -12 28 -18 45 -18s33 6 45 18l91 91l362 362c12 12 18 28 18 45zM1536 640c0 -424 -344 -768 -768 -768s-768 344 -768 768s344 768 768 768s768 -344 768 -768z" />
    <glyph glyph-name="arrow-circle-left" unicode="&#xf0a8;" 
d="M1280 576v128c0 35 -29 64 -64 64h-502l189 189c12 12 19 28 19 45s-7 33 -19 45l-91 91c-12 12 -28 18 -45 18s-33 -6 -45 -18l-362 -362l-91 -91c-12 -12 -18 -28 -18 -45s6 -33 18 -45l91 -91l362 -362c12 -12 28 -18 45 -18s33 6 45 18l91 91c12 12 18 28 18 45
s-6 33 -18 45l-189 189h502c35 0 64 29 64 64zM1536 640c0 -424 -344 -768 -768 -768s-768 344 -768 768s344 768 768 768s768 -344 768 -768z" />
    <glyph glyph-name="arrow-circle-o-down" unicode="&#xf01a;" 
d="M1120 608c0 -9 -4 -17 -10 -24l-319 -319c-7 -6 -15 -9 -23 -9s-16 3 -23 9l-320 320c-9 10 -12 23 -7 35s17 20 30 20h192v352c0 18 14 32 32 32h192c18 0 32 -14 32 -32v-352h192c18 0 32 -14 32 -32zM768 1184c-300 0 -544 -244 -544 -544s244 -544 544 -544
s544 244 544 544s-244 544 -544 544zM1536 640c0 -424 -344 -768 -768 -768s-768 344 -768 768s344 768 768 768s768 -344 768 -768z" />
    <glyph glyph-name="arrow-circle-o-left" unicode="&#xf190;" 
d="M1152 736v-192c0 -17 -15 -32 -32 -32h-352v-192c0 -18 -14 -32 -32 -32c-9 0 -17 4 -24 10l-319 319c-6 6 -9 15 -9 23s3 17 9 23l320 320c6 6 15 9 23 9c17 0 32 -15 32 -32v-192h352c17 0 32 -15 32 -32zM1312 640c0 300 -244 544 -544 544s-544 -244 -544 -544
s244 -544 544 -544s544 244 544 544zM1536 640c0 -424 -344 -768 -768 -768s-768 344 -768 768s344 768 768 768s768 -344 768 -768z" />
    <glyph glyph-name="arrow-circle-o-right" unicode="&#xf18e;" 
d="M1152 640c0 -8 -3 -17 -9 -23l-320 -320c-6 -6 -15 -9 -23 -9c-17 0 -32 15 -32 32v192h-352c-17 0 -32 15 -32 32v192c0 17 15 32 32 32h352v192c0 18 14 32 32 32c9 0 17 -4 24 -10l319 -319c6 -6 9 -15 9 -23zM1312 640c0 300 -244 544 -544 544s-544 -244 -544 -544
s244 -544 544 -544s544 244 544 544zM1536 640c0 -424 -344 -768 -768 -768s-768 344 -768 768s344 768 768 768s768 -344 768 -768z" />
    <glyph glyph-name="arrow-circle-o-up" unicode="&#xf01b;" 
d="M1118 660c-5 -12 -17 -20 -30 -20h-192v-352c0 -18 -14 -32 -32 -32h-192c-18 0 -32 14 -32 32v352h-192c-18 0 -32 14 -32 32c0 9 4 17 10 24l319 319c7 6 15 9 23 9s16 -3 23 -9l320 -320c9 -10 12 -23 7 -35zM768 1184c-300 0 -544 -244 -544 -544s244 -544 544 -544
s544 244 544 544s-244 544 -544 544zM1536 640c0 -424 -344 -768 -768 -768s-768 344 -768 768s344 768 768 768s768 -344 768 -768z" />
    <glyph glyph-name="arrow-circle-right" unicode="&#xf0a9;" 
d="M1285 640c0 17 -6 33 -18 45l-91 91l-362 362c-12 12 -28 18 -45 18s-33 -6 -45 -18l-91 -91c-12 -12 -18 -28 -18 -45s6 -33 18 -45l189 -189h-502c-35 0 -64 -29 -64 -64v-128c0 -35 29 -64 64 -64h502l-189 -189c-12 -12 -19 -28 -19 -45s7 -33 19 -45l91 -91
c12 -12 28 -18 45 -18s33 6 45 18l362 362l91 91c12 12 18 28 18 45zM1536 640c0 -424 -344 -768 -768 -768s-768 344 -768 768s344 768 768 768s768 -344 768 -768z" />
    <glyph glyph-name="arrow-circle-up" unicode="&#xf0aa;" 
d="M1284 641c0 17 -6 33 -18 45l-362 362l-91 91c-12 12 -28 18 -45 18s-33 -6 -45 -18l-91 -91l-362 -362c-12 -12 -18 -28 -18 -45s6 -33 18 -45l91 -91c12 -12 28 -18 45 -18s33 6 45 18l189 189v-502c0 -35 29 -64 64 -64h128c35 0 64 29 64 64v502l189 -189
c12 -12 28 -19 45 -19s33 7 45 19l91 91c12 12 18 28 18 45zM1536 640c0 -424 -344 -768 -768 -768s-768 344 -768 768s344 768 768 768s768 -344 768 -768z" />
    <glyph glyph-name="arrow-down" unicode="&#xf063;" horiz-adv-x="1558" 
d="M1558 704c0 -34 -14 -67 -37 -90l-651 -652c-24 -23 -57 -37 -91 -37s-67 14 -90 37l-651 652c-24 23 -38 56 -38 90s14 67 38 91l74 75c24 23 57 37 91 37s67 -14 90 -37l294 -294v704c0 70 58 128 128 128h128c70 0 128 -58 128 -128v-704l294 294c23 23 56 37 90 37
s67 -14 91 -37l75 -75c23 -24 37 -57 37 -91z" />
    <glyph glyph-name="arrow-left" unicode="&#xf060;" horiz-adv-x="1472" 
d="M1472 640v-128c0 -68 -45 -128 -117 -128h-704l293 -294c24 -23 38 -56 38 -90s-14 -67 -38 -90l-75 -76c-23 -23 -56 -37 -90 -37s-67 14 -91 37l-651 652c-23 23 -37 56 -37 90s14 67 37 91l651 650c24 24 57 38 91 38s66 -14 90 -38l75 -74c24 -24 38 -57 38 -91
s-14 -67 -38 -91l-293 -293h704c72 0 117 -60 117 -128z" />
    <glyph glyph-name="arrow-right" unicode="&#xf061;" horiz-adv-x="1472" 
d="M1472 576c0 -34 -13 -67 -37 -91l-651 -651c-24 -23 -57 -37 -91 -37s-66 14 -90 37l-75 75c-24 24 -38 57 -38 91s14 67 38 91l293 293h-704c-72 0 -117 60 -117 128v128c0 68 45 128 117 128h704l-293 294c-24 23 -38 56 -38 90s14 67 38 90l75 75c24 24 56 38 90 38
s67 -14 91 -38l651 -651c24 -23 37 -56 37 -90z" />
    <glyph glyph-name="arrow-up" unicode="&#xf062;" horiz-adv-x="1558" 
d="M1558 565c0 -34 -14 -66 -37 -90l-75 -75c-24 -24 -57 -38 -91 -38s-67 14 -90 38l-294 293v-704c0 -72 -60 -117 -128 -117h-128c-68 0 -128 45 -128 117v704l-294 -293c-23 -24 -56 -38 -90 -38s-67 14 -90 38l-75 75c-24 24 -38 56 -38 90s14 67 38 91l651 651
c23 24 56 37 90 37s67 -13 91 -37l651 -651c23 -24 37 -57 37 -91z" />
    <glyph glyph-name="arrows" unicode="&#xf047;" horiz-adv-x="1792" 
d="M1792 640c0 -17 -7 -33 -19 -45l-256 -256c-12 -12 -28 -19 -45 -19c-35 0 -64 29 -64 64v128h-384v-384h128c35 0 64 -29 64 -64c0 -17 -7 -33 -19 -45l-256 -256c-12 -12 -28 -19 -45 -19s-33 7 -45 19l-256 256c-12 12 -19 28 -19 45c0 35 29 64 64 64h128v384h-384
v-128c0 -35 -29 -64 -64 -64c-17 0 -33 7 -45 19l-256 256c-12 12 -19 28 -19 45s7 33 19 45l256 256c12 12 28 19 45 19c35 0 64 -29 64 -64v-128h384v384h-128c-35 0 -64 29 -64 64c0 17 7 33 19 45l256 256c12 12 28 19 45 19s33 -7 45 -19l256 -256
c12 -12 19 -28 19 -45c0 -35 -29 -64 -64 -64h-128v-384h384v128c0 35 29 64 64 64c17 0 33 -7 45 -19l256 -256c12 -12 19 -28 19 -45z" />
    <glyph glyph-name="arrows-alt" unicode="&#xf0b2;" 
d="M1283 995l-355 -355l355 -355l144 144c18 19 46 24 70 14c23 -10 39 -33 39 -59v-448c0 -35 -29 -64 -64 -64h-448c-26 0 -49 16 -59 40c-10 23 -5 51 14 69l144 144l-355 355l-355 -355l144 -144c19 -18 24 -46 14 -69c-10 -24 -33 -40 -59 -40h-448
c-35 0 -64 29 -64 64v448c0 26 16 49 40 59c23 10 51 5 69 -14l144 -144l355 355l-355 355l-144 -144c-12 -12 -28 -19 -45 -19c-8 0 -17 2 -24 5c-24 10 -40 33 -40 59v448c0 35 29 64 64 64h448c26 0 49 -16 59 -40c10 -23 5 -51 -14 -69l-144 -144l355 -355l355 355
l-144 144c-19 18 -24 46 -14 69c10 24 33 40 59 40h448c35 0 64 -29 64 -64v-448c0 -26 -16 -49 -39 -59c-8 -3 -17 -5 -25 -5c-17 0 -33 7 -45 19z" />
    <glyph glyph-name="arrows-h" unicode="&#xf07e;" horiz-adv-x="1792" 
d="M1792 640c0 -17 -7 -33 -19 -45l-256 -256c-12 -12 -28 -19 -45 -19c-35 0 -64 29 -64 64v128h-1024v-128c0 -35 -29 -64 -64 -64c-17 0 -33 7 -45 19l-256 256c-12 12 -19 28 -19 45s7 33 19 45l256 256c12 12 28 19 45 19c35 0 64 -29 64 -64v-128h1024v128
c0 35 29 64 64 64c17 0 33 -7 45 -19l256 -256c12 -12 19 -28 19 -45z" />
    <glyph glyph-name="arrows-v" unicode="&#xf07d;" horiz-adv-x="640" 
d="M640 1216c0 -35 -29 -64 -64 -64h-128v-1024h128c35 0 64 -29 64 -64c0 -17 -7 -33 -19 -45l-256 -256c-12 -12 -28 -19 -45 -19s-33 7 -45 19l-256 256c-12 12 -19 28 -19 45c0 35 29 64 64 64h128v1024h-128c-35 0 -64 29 -64 64c0 17 7 33 19 45l256 256
c12 12 28 19 45 19s33 -7 45 -19l256 -256c12 -12 19 -28 19 -45z" />
    <glyph glyph-name="artstation" unicode="&#xf2ed;" horiz-adv-x="1533" 
d="M601 1277v0h267c51 0 112 -37 136 -83l504 -878c16 -24 25 -53 25 -84c0 -35 -7 -53 -31 -94l-123 -213zM474 1058l348 -604h-695zM0 233v0h949l178 -309h-859c-53 0 -114 38 -138 85h-1z" />
    <glyph glyph-name="assistive-listening-systems" unicode="&#xf2a2;" horiz-adv-x="1792" 
d="M128 -192c0 -35 -29 -64 -64 -64s-64 29 -64 64s29 64 64 64s64 -29 64 -64zM320 0c0 -35 -29 -64 -64 -64s-64 29 -64 64s29 64 64 64s64 -29 64 -64zM365 365l256 -256l-90 -90l-256 256zM704 384c0 -35 -29 -64 -64 -64s-64 29 -64 64s29 64 64 64s64 -29 64 -64z
M1411 704c0 -166 -78 -255 -146 -334c-63 -72 -113 -129 -113 -242c0 -212 -172 -384 -384 -384c-35 0 -64 29 -64 64s29 64 64 64c141 0 256 115 256 256c0 161 77 249 144 326c62 71 115 132 115 250c0 247 -201 448 -448 448s-448 -201 -448 -448c0 -35 -29 -64 -64 -64
s-64 29 -64 64c0 318 258 576 576 576s576 -258 576 -576zM896 576c0 -35 -29 -64 -64 -64s-64 29 -64 64s29 64 64 64s64 -29 64 -64zM1184 704c0 -35 -29 -64 -64 -64s-64 29 -64 64c0 124 -100 224 -224 224c-123 0 -224 -100 -224 -224c0 -35 -29 -64 -64 -64
s-64 29 -64 64c0 194 158 352 352 352s352 -158 352 -352zM1578 993c13 -33 -4 -70 -37 -83c-7 -3 -15 -4 -23 -4c-25 0 -50 15 -59 41c-45 117 -123 219 -224 295c-28 21 -34 61 -13 89c22 28 62 34 90 13c120 -90 212 -212 266 -351zM1788 1074c12 -33 -4 -70 -37 -83
c-8 -3 -15 -4 -23 -4c-26 0 -50 15 -60 41c-60 156 -163 292 -297 393c-29 21 -34 61 -13 89c21 29 61 34 89 13c154 -115 272 -271 341 -449z" />
    <glyph glyph-name="asterisk" unicode="&#xf069;" horiz-adv-x="1428" 
d="M1364 486c61 -35 82 -114 47 -175l-64 -110c-35 -61 -114 -82 -175 -47l-266 153v-307c0 -70 -58 -128 -128 -128h-128c-70 0 -128 58 -128 128v307l-266 -153c-61 -35 -140 -14 -175 47l-64 110c-35 61 -14 140 47 175l266 154l-266 154c-61 35 -82 114 -47 175l64 110
c35 61 114 82 175 47l266 -153v307c0 70 58 128 128 128h128c70 0 128 -58 128 -128v-307l266 153c61 35 140 14 175 -47l64 -110c35 -61 14 -140 -47 -175l-266 -154z" />
    <glyph glyph-name="at" unicode="&#xf1fa;" 
d="M972 761c0 144 -75 230 -201 230c-166 0 -344 -165 -344 -432c0 -149 74 -234 204 -234c201 0 341 230 341 436zM1536 640c0 -311 -222 -428 -412 -434c-13 0 -18 -1 -32 -1c-62 0 -111 18 -142 53c-19 22 -30 50 -33 83c-62 -78 -170 -154 -305 -154
c-215 0 -338 133 -338 365c0 319 221 578 491 578c117 0 211 -50 261 -135l2 19l11 56c1 8 8 18 15 18h118c5 0 10 -7 13 -11c3 -3 4 -11 3 -16l-120 -614c-4 -19 -5 -34 -5 -48c0 -54 16 -65 57 -65c68 2 288 30 288 306c0 389 -251 640 -640 640
c-353 0 -640 -287 -640 -640s287 -640 640 -640c147 0 291 51 405 144c14 12 34 10 45 -4l41 -49c5 -7 8 -15 7 -24c-1 -8 -5 -16 -12 -22c-136 -111 -309 -173 -486 -173c-423 0 -768 345 -768 768s345 768 768 768c459 0 768 -309 768 -768z" />
    <glyph glyph-name="att" unicode="&#xf31e;" 
d="M768 1407v0c144 0 278 -39 393 -108c31 -19 46 -30 46 -48c0 -73 -206 -150 -472 -150c-268 0 -419 70 -419 135c0 22 19 39 54 60c116 71 253 111 398 111zM273 1226v0c1 0 0 -1 -1 -2c-22 -27 -31 -53 -31 -79c0 -72 57 -185 362 -185c416 0 677 151 677 236
c0 7 -2 13 -5 18c-1 1 0 2 1 1c25 -23 48 -46 73 -74c38 -43 53 -66 53 -104c0 -107 -166 -228 -539 -228c-350 0 -725 108 -725 257c0 10 10 28 25 47c32 41 68 78 108 112c1 0 2 1 2 1zM1456 979v0s1 0 1 -1c18 -36 40 -89 51 -133c10 -40 10 -69 2 -97
c-43 -152 -307 -235 -646 -235c-556 0 -794 160 -841 260c-6 12 -7 20 -4 37c7 39 32 114 55 159c1 1 1 1 1 0c-4 -15 -6 -30 -6 -45c0 -153 253 -274 557 -274c281 0 837 129 830 328v1zM1534 683v0s1 -1 1 -2c1 -13 1 -25 1 -41c0 -67 -9 -146 -28 -190
c-26 -61 -154 -248 -714 -248c-411 0 -649 139 -744 238c-21 22 -36 49 -39 67c-7 36 -11 91 -11 133c0 2 2 2 2 0c34 -125 219 -308 612 -308c413 0 891 200 919 350c0 1 1 1 1 1zM1482 360v0c1 0 1 -1 1 -2c-13 -33 -30 -67 -47 -96c-29 -50 -61 -86 -95 -114
c-124 -102 -332 -154 -521 -154c-359 0 -649 111 -745 315c-1 2 0 2 1 1c103 -149 366 -227 610 -227c345 0 679 106 795 276c0 1 1 1 1 1zM1274 64v0c1 0 1 -1 0 -2c-135 -118 -312 -190 -506 -190c-177 0 -341 60 -471 161c-1 1 -1 3 1 2c84 -47 234 -100 470 -100
c272 0 444 89 505 129h1z" />
    <glyph glyph-name="audio-description" unicode="&#xf29e;" horiz-adv-x="2304" 
d="M504 542h171l-1 265zM1530 641c0 111 -64 193 -197 193h-54v-388h52c125 0 199 91 199 195zM956 1018l1 -756c0 -19 -15 -34 -33 -34h-216c-18 0 -33 15 -33 34v62h-291l-55 -81c-6 -9 -17 -15 -28 -15h-267c-28 0 -44 31 -27 53l556 757c6 9 16 14 27 14h332
c19 0 34 -15 34 -34zM1783 641c0 -263 -192 -413 -450 -413h-270c-19 0 -34 15 -34 34v756c0 19 15 34 34 34h268c260 0 452 -148 452 -411zM1939 640c0 0 4 -260 -148 -413h-51c136 162 139 414 139 414s2 198 -135 410h43c148 -169 152 -411 152 -411zM2123 640
c0 0 4 -260 -149 -413h-51c136 162 139 414 139 414s2 198 -134 410h43c148 -169 152 -411 152 -411zM2304 640c0 0 4 -260 -148 -413h-51c135 162 138 414 138 414s2 198 -134 410h43c148 -169 152 -411 152 -411z" />
    <glyph glyph-name="backward" unicode="&#xf04a;" horiz-adv-x="1542" 
d="M1497 1395c25 25 45 16 45 -19v-1472c0 -35 -20 -44 -45 -19l-710 710c-6 6 -10 12 -13 19v-710c0 -35 -20 -44 -45 -19l-710 710c-25 25 -25 65 0 90l710 710c25 25 45 16 45 -19v-710c3 7 7 13 13 19z" />
    <glyph glyph-name="balance-scale" unicode="&#xf24e;" horiz-adv-x="2176" 
d="M1728 1088l-384 -704h768zM448 1088l-384 -704h768zM1269 1280c-19 -54 -63 -98 -117 -117v-1291h608c18 0 32 -14 32 -32v-64c0 -18 -14 -32 -32 -32h-1344c-18 0 -32 14 -32 32v64c0 18 14 32 32 32h608v1291c-54 19 -98 63 -117 117h-491c-18 0 -32 14 -32 32v64
c0 18 14 32 32 32h491c27 75 97 128 181 128s154 -53 181 -128h491c18 0 32 -14 32 -32v-64c0 -18 -14 -32 -32 -32h-491zM1088 1264c44 0 80 36 80 80s-36 80 -80 80s-80 -36 -80 -80s36 -80 80 -80zM2176 384c0 -206 -285 -288 -448 -288s-448 82 -448 288
c0 39 349 657 392 735c11 20 33 33 56 33s45 -13 56 -33c43 -78 392 -696 392 -735zM896 384c0 -206 -285 -288 -448 -288s-448 82 -448 288c0 39 349 657 392 735c11 20 33 33 56 33s45 -13 56 -33c43 -78 392 -696 392 -735z" />
    <glyph glyph-name="ban" unicode="&#xf05e;" 
d="M1312 643c0 109 -32 210 -87 295l-754 -753c86 -56 188 -89 297 -89c300 0 544 245 544 547zM313 344l755 754c-86 58 -189 91 -300 91c-300 0 -544 -245 -544 -546c0 -111 33 -213 89 -299zM1536 643c0 -426 -344 -771 -768 -771s-768 345 -768 771
c0 425 344 770 768 770s768 -345 768 -770z" />
    <glyph glyph-name="bandcamp" unicode="&#xf2d5;" horiz-adv-x="1792" 
d="M1070 358l306 564h-654l-306 -564h654zM1792 640c0 -495 -401 -896 -896 -896s-896 401 -896 896s401 896 896 896s896 -401 896 -896z" />
    <glyph glyph-name="bar-chart" unicode="&#xf080;" horiz-adv-x="2048" 
d="M640 640v-512h-256v512h256zM1024 1152v-1024h-256v1024h256zM2048 0v-128h-2048v1536h128v-1408h1920zM1408 896v-768h-256v768h256zM1792 1280v-1152h-256v1152h256z" />
    <glyph glyph-name="barcode" unicode="&#xf02a;" horiz-adv-x="2176" 
d="M0 1404h128v-1532h-128v1532zM2048 1408h128v-1536h-128v1536zM256 1408h128v-1280h-128v1280zM512 1408h256v-1280h-256v1280zM1280 1408h256v-1280h-256v1280zM1792 1408h128v-1280h-128v1280zM1024 1408h128v-1280h-128v1280zM256 0h128v-128h-128v128zM512 0h128
v-128h-128v128zM768 0h128v-128h-128v128zM1024 0h128v-128h-128v128zM1280 0h128v-128h-128v128zM1536 0h128v-128h-128v128zM1792 0h128v-128h-128v128z" />
    <glyph glyph-name="bars" unicode="&#xf0c9;" 
d="M1536 192v-128c0 -35 -29 -64 -64 -64h-1408c-35 0 -64 29 -64 64v128c0 35 29 64 64 64h1408c35 0 64 -29 64 -64zM1536 704v-128c0 -35 -29 -64 -64 -64h-1408c-35 0 -64 29 -64 64v128c0 35 29 64 64 64h1408c35 0 64 -29 64 -64zM1536 1216v-128
c0 -35 -29 -64 -64 -64h-1408c-35 0 -64 29 -64 64v128c0 35 29 64 64 64h1408c35 0 64 -29 64 -64z" />
    <glyph glyph-name="bath" unicode="&#xf2cd;" horiz-adv-x="1792" 
d="M1664 448v-192c0 -114 -50 -215 -128 -286v-194c0 -18 -14 -32 -32 -32h-64c-18 0 -32 14 -32 32v118c-40 -14 -83 -22 -128 -22h-768c-45 0 -88 8 -128 22v-110c0 -22 -14 -40 -32 -40h-64c-18 0 -32 18 -32 40v186c-78 71 -128 172 -128 286v192h1536zM704 864
c0 -18 -14 -32 -32 -32s-32 14 -32 32s14 32 32 32s32 -14 32 -32zM768 928c0 -18 -14 -32 -32 -32s-32 14 -32 32s14 32 32 32s32 -14 32 -32zM704 992c0 -18 -14 -32 -32 -32s-32 14 -32 32s14 32 32 32s32 -14 32 -32zM832 992c0 -18 -14 -32 -32 -32s-32 14 -32 32
s14 32 32 32s32 -14 32 -32zM768 1056c0 -18 -14 -32 -32 -32s-32 14 -32 32s14 32 32 32s32 -14 32 -32zM704 1120c0 -18 -14 -32 -32 -32s-32 14 -32 32s14 32 32 32s32 -14 32 -32zM1792 608v-64c0 -18 -14 -32 -32 -32h-1728c-18 0 -32 14 -32 32v64c0 18 14 32 32 32
h96v640c0 141 115 256 256 256c72 0 137 -30 184 -78c62 25 136 16 191 -27l22 22c6 6 16 6 22 0l42 -42c6 -6 6 -16 0 -22l-314 -314c-6 -6 -16 -6 -22 0l-42 42c-6 6 -6 16 0 22l22 22c-48 61 -54 145 -17 212c-23 22 -54 35 -88 35c-71 0 -128 -57 -128 -128v-640h1504
c18 0 32 -14 32 -32zM896 1056c0 -18 -14 -32 -32 -32s-32 14 -32 32s14 32 32 32s32 -14 32 -32zM832 1120c0 -18 -14 -32 -32 -32s-32 14 -32 32s14 32 32 32s32 -14 32 -32zM768 1184c0 -18 -14 -32 -32 -32s-32 14 -32 32s14 32 32 32s32 -14 32 -32zM960 1120
c0 -18 -14 -32 -32 -32s-32 14 -32 32s14 32 32 32s32 -14 32 -32zM896 1184c0 -18 -14 -32 -32 -32s-32 14 -32 32s14 32 32 32s32 -14 32 -32zM832 1248c0 -18 -14 -32 -32 -32s-32 14 -32 32s14 32 32 32s32 -14 32 -32zM1024 1184c0 -18 -14 -32 -32 -32s-32 14 -32 32
s14 32 32 32s32 -14 32 -32zM960 1248c0 -18 -14 -32 -32 -32s-32 14 -32 32s14 32 32 32s32 -14 32 -32zM1088 1248c0 -18 -14 -32 -32 -32s-32 14 -32 32s14 32 32 32s32 -14 32 -32z" />
    <glyph glyph-name="battery-empty" unicode="&#xf244;" horiz-adv-x="2304" 
d="M2176 960c71 0 128 -57 128 -128v-384c0 -71 -57 -128 -128 -128v-160c0 -88 -72 -160 -160 -160h-1856c-88 0 -160 72 -160 160v960c0 88 72 160 160 160h1856c88 0 160 -72 160 -160v-160zM2176 448v384h-128v288c0 18 -14 32 -32 32h-1856c-18 0 -32 -14 -32 -32v-960
c0 -18 14 -32 32 -32h1856c18 0 32 14 32 32v288h128z" />
    <glyph glyph-name="battery-full" unicode="&#xf240;" horiz-adv-x="2304" 
d="M1920 1024v-768h-1664v768h1664zM2048 448h128v384h-128v288c0 18 -14 32 -32 32h-1856c-18 0 -32 -14 -32 -32v-960c0 -18 14 -32 32 -32h1856c18 0 32 14 32 32v288zM2304 832v-384c0 -71 -57 -128 -128 -128v-160c0 -88 -72 -160 -160 -160h-1856
c-88 0 -160 72 -160 160v960c0 88 72 160 160 160h1856c88 0 160 -72 160 -160v-160c71 0 128 -57 128 -128z" />
    <glyph glyph-name="battery-half" unicode="&#xf242;" horiz-adv-x="2304" 
d="M256 256v768h896v-768h-896zM2176 960c71 0 128 -57 128 -128v-384c0 -71 -57 -128 -128 -128v-160c0 -88 -72 -160 -160 -160h-1856c-88 0 -160 72 -160 160v960c0 88 72 160 160 160h1856c88 0 160 -72 160 -160v-160zM2176 448v384h-128v288c0 18 -14 32 -32 32h-1856
c-18 0 -32 -14 -32 -32v-960c0 -18 14 -32 32 -32h1856c18 0 32 14 32 32v288h128z" />
    <glyph glyph-name="battery-quarter" unicode="&#xf243;" horiz-adv-x="2304" 
d="M256 256v768h512v-768h-512zM2176 960c71 0 128 -57 128 -128v-384c0 -71 -57 -128 -128 -128v-160c0 -88 -72 -160 -160 -160h-1856c-88 0 -160 72 -160 160v960c0 88 72 160 160 160h1856c88 0 160 -72 160 -160v-160zM2176 448v384h-128v288c0 18 -14 32 -32 32h-1856
c-18 0 -32 -14 -32 -32v-960c0 -18 14 -32 32 -32h1856c18 0 32 14 32 32v288h128z" />
    <glyph glyph-name="battery-three-quarters" unicode="&#xf241;" horiz-adv-x="2304" 
d="M256 256v768h1280v-768h-1280zM2176 960c71 0 128 -57 128 -128v-384c0 -71 -57 -128 -128 -128v-160c0 -88 -72 -160 -160 -160h-1856c-88 0 -160 72 -160 160v960c0 88 72 160 160 160h1856c88 0 160 -72 160 -160v-160zM2176 448v384h-128v288c0 18 -14 32 -32 32
h-1856c-18 0 -32 -14 -32 -32v-960c0 -18 14 -32 32 -32h1856c18 0 32 14 32 32v288h128z" />
    <glyph glyph-name="bed" unicode="&#xf236;" horiz-adv-x="2048" 
d="M256 512h1728c35 0 64 -29 64 -64v-448h-256v256h-1536v-256h-256v1216c0 35 29 64 64 64h128c35 0 64 -29 64 -64v-704zM832 832c0 -141 -115 -256 -256 -256s-256 115 -256 256s115 256 256 256s256 -115 256 -256zM2048 576h-1152v384c0 35 29 64 64 64h704
c212 0 384 -172 384 -384v-64z" />
    <glyph glyph-name="beer" unicode="&#xf0fc;" horiz-adv-x="1600" 
d="M576 640v384h-256v-256c0 -71 57 -128 128 -128h128zM1600 192v-192h-1152v192l128 192h-128c-212 0 -384 172 -384 384v320l-64 64l32 128h480l32 128h960l32 -192l-64 -32v-800z" />
    <glyph glyph-name="behance" unicode="&#xf1b4;" horiz-adv-x="2048" 
d="M1848 1197v-124h-511v124h511zM1596 771c-120 0 -200 -75 -208 -195h408c-11 121 -74 195 -200 195zM1612 186c76 0 174 41 198 119h221c-68 -209 -209 -307 -427 -307c-288 0 -467 195 -467 479c0 274 189 483 467 483c286 0 444 -225 444 -495c0 -16 -1 -32 -2 -47
h-658c0 -146 77 -232 224 -232zM277 236h296c113 0 205 40 205 167c0 129 -77 180 -199 180h-302v-347zM277 773h281c99 0 169 43 169 150c0 116 -90 144 -190 144h-260v-294zM0 1282h594c216 0 403 -61 403 -312c0 -127 -59 -209 -172 -263c155 -44 230 -161 230 -319
c0 -256 -215 -366 -444 -366h-611v1260z" />
    <glyph glyph-name="behance-square" unicode="&#xf1b5;" 
d="M1248 1408c159 0 288 -129 288 -288v-960c0 -159 -129 -288 -288 -288h-960c-159 0 -288 129 -288 288v960c0 159 129 288 288 288h960zM499 1041h-371v-787h382c143 0 277 68 277 228c0 99 -47 172 -143 200c70 34 107 85 107 164c0 157 -117 195 -252 195zM477 723
h-176v184h163c62 0 119 -17 119 -90c0 -67 -44 -94 -106 -94zM486 388h-185v217h189c76 0 124 -33 124 -113s-57 -104 -128 -104zM1136 356c-92 0 -140 54 -140 145h411c1 10 1 20 1 30c0 168 -99 309 -278 309c-173 0 -292 -131 -292 -302c0 -178 112 -299 292 -299
c137 0 225 61 267 191h-138c-15 -48 -76 -74 -123 -74zM1126 722c78 0 117 -47 124 -122h-254c5 75 55 122 130 122zM964 988v-77h319v77h-319z" />
    <glyph glyph-name="bell" unicode="&#xf0f3;" horiz-adv-x="1664" 
d="M848 -160c0 9 -7 16 -16 16c-79 0 -144 65 -144 144c0 9 -7 16 -16 16s-16 -7 -16 -16c0 -97 79 -176 176 -176c9 0 16 7 16 16zM182 128h1300c-179 202 -266 476 -266 832c0 129 -122 320 -384 320s-384 -191 -384 -320c0 -356 -87 -630 -266 -832zM1664 128
c0 -70 -58 -128 -128 -128h-448c0 -141 -115 -256 -256 -256s-256 115 -256 256h-448c-70 0 -128 58 -128 128c148 125 320 349 320 832c0 192 159 402 424 441c-5 12 -8 25 -8 39c0 53 43 96 96 96s96 -43 96 -96c0 -14 -3 -27 -8 -39c265 -39 424 -249 424 -441
c0 -483 172 -707 320 -832z" />
    <glyph glyph-name="bell-o" unicode="&#xf0a2;" horiz-adv-x="1664" 
d="M848 -160c0 9 -7 16 -16 16c-79 0 -144 65 -144 144c0 9 -7 16 -16 16s-16 -7 -16 -16c0 -97 79 -176 176 -176c9 0 16 7 16 16zM1664 128c0 -70 -58 -128 -128 -128h-448c0 -141 -115 -256 -256 -256s-256 115 -256 256h-448c-70 0 -128 58 -128 128
c148 125 320 349 320 832c0 192 159 402 424 441c-5 12 -8 25 -8 39c0 53 43 96 96 96s96 -43 96 -96c0 -14 -3 -27 -8 -39c265 -39 424 -249 424 -441c0 -483 172 -707 320 -832z" />
    <glyph glyph-name="bell-rigning-o" unicode="&#xf330;" horiz-adv-x="1664" 
d="M832 1536c53 0 96 -43 96 -96c0 -14 -3 -27 -8 -39c265 -39 424 -249 424 -441c0 -483 172 -707 320 -832c0 -70 -58 -128 -128 -128h-448c0 -141 -115 -256 -256 -256s-256 115 -256 256h-448c-70 0 -128 58 -128 128c148 125 320 349 320 832c0 192 159 402 424 441
c-5 12 -8 25 -8 39c0 53 43 96 96 96zM277 1455l86 -94c-120 -110 -172 -242 -171 -401h-128c-1 189 67 362 213 495zM1387 1455v0c146 -133 214 -306 213 -495h-128c1 159 -51 291 -171 401zM672 16c-9 0 -16 -7 -16 -16c0 -97 79 -176 176 -176c9 0 16 7 16 16
s-7 16 -16 16c-79 0 -144 65 -144 144c0 9 -7 16 -16 16z" />
    <glyph glyph-name="bell-ringing" unicode="&#xf32d;" horiz-adv-x="1664" 
d="M832 1536c53 0 96 -43 96 -96c0 -14 -3 -27 -8 -39c265 -39 424 -249 424 -441c0 -483 172 -707 320 -832c0 -70 -58 -128 -128 -128h-448c0 -141 -115 -256 -256 -256s-256 115 -256 256h-448c-70 0 -128 58 -128 128c148 125 320 349 320 832c0 192 159 402 424 441
c-5 12 -8 25 -8 39c0 53 43 96 96 96zM277 1455l86 -94c-120 -110 -172 -242 -171 -401h-128c-1 189 67 362 213 495zM1387 1455v0c146 -133 214 -306 213 -495h-128c1 159 -51 291 -171 401zM832 1280c-262 0 -384 -191 -384 -320c0 -356 -87 -630 -266 -832h1300
c-179 202 -266 476 -266 832c0 129 -122 320 -384 320zM672 16c-9 0 -16 -7 -16 -16c0 -97 79 -176 176 -176c9 0 16 7 16 16s-7 16 -16 16c-79 0 -144 65 -144 144c0 9 -7 16 -16 16z" />
    <glyph glyph-name="bell-slash" unicode="&#xf1f6;" horiz-adv-x="2019" 
d="M1544 684c51 -298 182 -458 298 -556c0 -70 -58 -128 -128 -128h-448c0 -141 -115 -256 -256 -256s-255 114 -256 255zM1010 -176c9 0 16 7 16 16s-7 16 -16 16c-79 0 -144 65 -144 144c0 9 -7 16 -16 16s-16 -7 -16 -16c0 -97 79 -176 176 -176zM2012 1424
c11 -14 10 -34 -3 -46l-1872 -1622c-13 -11 -34 -10 -45 4l-84 96c-11 14 -10 34 3 45l186 161c-12 20 -19 42 -19 66c148 125 320 349 320 832c0 192 159 402 424 441c-5 12 -8 25 -8 39c0 53 43 96 96 96s96 -43 96 -96c0 -14 -3 -27 -8 -39c172 -25 299 -122 367 -240
l418 363c13 11 34 10 45 -4z" />
    <glyph glyph-name="bell-slash-o" unicode="&#xf1f7;" horiz-adv-x="2019" 
d="M1026 -160c0 9 -7 16 -16 16c-79 0 -144 65 -144 144c0 9 -7 16 -16 16s-16 -7 -16 -16c0 -97 79 -176 176 -176c9 0 16 7 16 16zM489 315l877 760c-50 105 -166 205 -356 205c-262 0 -384 -191 -384 -320c0 -256 -45 -470 -137 -645zM1842 128c0 -70 -58 -128 -128 -128
h-448c0 -141 -115 -256 -256 -256s-255 114 -256 255l149 129h757c-111 125 -186 277 -227 459l111 97c51 -298 182 -458 298 -556zM1928 1520l84 -96c11 -14 10 -34 -3 -46l-1872 -1622c-13 -11 -34 -10 -45 4l-84 96c-11 14 -10 34 3 45l186 161c-12 20 -19 42 -19 66
c148 125 320 349 320 832c0 192 159 402 424 441c-5 12 -8 25 -8 39c0 53 43 96 96 96s96 -43 96 -96c0 -14 -3 -27 -8 -39c172 -25 299 -122 367 -240l418 363c13 11 34 10 45 -4z" />
    <glyph glyph-name="bicycle" unicode="&#xf206;" horiz-adv-x="2304" 
d="M762 384h-314c-53 0 -83 60 -51 102l188 251c-42 20 -88 31 -137 31c-176 0 -320 -144 -320 -320s144 -320 320 -320c155 0 284 110 314 256zM576 512h186c-12 56 -38 107 -75 148zM1056 512l288 384h-480l-99 -132c67 -66 112 -154 126 -252h165zM2176 448
c0 176 -144 320 -320 320c-43 0 -83 -9 -121 -24l174 -260c20 -30 12 -70 -17 -89c-11 -8 -24 -11 -36 -11c-21 0 -41 10 -53 29l-174 260c-57 -58 -93 -137 -93 -225c0 -176 144 -320 320 -320s320 144 320 320zM2304 448c0 -247 -201 -448 -448 -448s-448 201 -448 448
c0 132 58 251 149 333l-65 98l-353 -469c-12 -17 -31 -26 -51 -26h-197c-31 -217 -217 -384 -443 -384c-247 0 -448 201 -448 448s201 448 448 448c78 0 151 -20 215 -55l137 183h-224c-35 0 -64 29 -64 64s29 64 64 64h384v-128h435l-85 128h-222c-35 0 -64 29 -64 64
s29 64 64 64h256c21 0 41 -11 53 -28l267 -400c58 28 123 44 192 44c247 0 448 -201 448 -448z" />
    <glyph glyph-name="binoculars" unicode="&#xf1e5;" horiz-adv-x="1792" 
d="M704 1216v-768c0 -35 -29 -64 -64 -64v-576c0 -35 -29 -64 -64 -64h-512c-35 0 -64 29 -64 64v512l249 873c4 14 17 23 31 23h424zM1024 1216v-704h-256v704h256zM1792 320v-512c0 -35 -29 -64 -64 -64h-512c-35 0 -64 29 -64 64v576c-35 0 -64 29 -64 64v768h424
c14 0 27 -9 31 -23zM736 1504v-224h-352v224c0 18 14 32 32 32h288c18 0 32 -14 32 -32zM1408 1504v-224h-352v224c0 18 14 32 32 32h288c18 0 32 -14 32 -32z" />
    <glyph glyph-name="biometric" unicode="&#xf32b;" horiz-adv-x="2304" 
d="M1419 640c0 -147 -120 -267 -267 -267s-267 120 -267 267s120 267 267 267s267 -120 267 -267zM0 1222h2304v-521h-769c-29 185 -190 327 -383 327s-354 -142 -383 -327h-769v521zM0 579h769c29 -185 190 -327 383 -327s354 142 383 327h769v-521h-2304v521z" />
    <glyph glyph-name="birthday-cake" unicode="&#xf1fd;" horiz-adv-x="1792" 
d="M1792 128v-384h-1792v384c98 0 150 44 191 79c34 30 57 49 108 49s73 -19 108 -49c41 -35 92 -79 191 -79c98 0 149 44 191 79c34 30 56 49 107 49s74 -19 108 -49c41 -35 93 -79 191 -79s150 44 191 79c34 30 57 49 108 49c50 0 73 -19 107 -49c41 -35 93 -79 191 -79z
M1792 448v-192c-51 0 -73 19 -108 49c-41 35 -92 79 -190 79c-99 0 -150 -44 -191 -79c-35 -30 -57 -49 -108 -49s-74 19 -108 49c-41 35 -92 79 -191 79c-98 0 -149 -44 -191 -79c-34 -30 -56 -49 -107 -49s-74 19 -108 49c-41 35 -93 79 -191 79c-99 0 -150 -44 -191 -79
c-34 -30 -57 -49 -108 -49v192c0 106 86 192 192 192h64v448h256v-448h256v448h256v-448h256v448h256v-448h64c106 0 192 -86 192 -192zM512 1312c0 -106 -57 -160 -128 -160s-128 57 -128 128c0 124 128 92 128 256c48 0 128 -118 128 -224zM1024 1312
c0 -106 -57 -160 -128 -160s-128 57 -128 128c0 124 128 92 128 256c48 0 128 -118 128 -224zM1536 1312c0 -106 -57 -160 -128 -160s-128 57 -128 128c0 124 128 92 128 256c48 0 128 -118 128 -224z" />
    <glyph glyph-name="bitbucket" unicode="&#xf171;" horiz-adv-x="1408" 
d="M815 677c11 -84 -91 -150 -162 -107c-80 35 -80 162 -2 198c67 41 164 -13 164 -91zM926 698c-18 142 -179 236 -310 177c-83 -37 -139 -125 -135 -218c5 -122 121 -222 243 -211s217 130 202 252zM1165 1240c-44 58 -119 68 -185 79c-187 30 -379 31 -566 -2
c-62 -10 -132 -21 -171 -77c64 -60 155 -69 237 -79c148 -19 300 -20 448 -1c83 10 175 18 237 80zM1222 205c-28 -98 -12 -230 -116 -287c-179 -99 -396 -110 -593 -75c-104 19 -226 52 -283 150c-25 96 -41 194 -57 292l6 16l18 9c298 -197 715 -197 1014 0
c47 -14 12 -71 11 -105zM1403 1166c-34 -219 -73 -437 -111 -655c-11 -64 -73 -100 -125 -127c-187 -94 -405 -110 -610 -88c-139 15 -281 52 -394 139c-53 41 -53 111 -63 170c-35 205 -75 410 -100 617c12 90 113 129 188 157c100 37 207 54 313 64c226 22 457 14 676 -50
c78 -23 162 -55 215 -122c24 -31 16 -70 11 -105z" />
    <glyph glyph-name="bitbucket-square" unicode="&#xf172;" 
d="M848 666c0 57 -70 96 -118 67c-57 -27 -57 -119 1 -143c52 -31 125 16 117 76zM928 682c11 -88 -58 -174 -146 -182s-171 64 -175 153c-3 66 38 130 98 157c94 42 210 -26 223 -128zM1100 1073c-44 -45 -111 -51 -170 -58c-107 -14 -216 -13 -324 0
c-59 8 -124 15 -170 58c28 40 78 48 123 55c135 24 273 23 408 1c48 -7 102 -15 133 -56zM1142 327c0 24 25 65 -9 75c-215 -142 -515 -142 -731 0l-12 -6l-5 -12c12 -70 23 -141 41 -210c41 -71 129 -95 204 -108c142 -26 299 -18 428 53c75 42 63 137 84 208zM1272 1020
c4 24 9 53 -8 75c-38 48 -98 71 -155 88c-158 46 -325 52 -487 36c-77 -7 -154 -20 -226 -46c-54 -21 -127 -49 -136 -113c18 -150 47 -297 72 -446c8 -42 8 -92 46 -122c81 -62 184 -89 284 -100c148 -16 305 -5 440 63c38 20 82 46 90 92c28 157 55 314 80 473zM1536 1120
v-960c0 -159 -129 -288 -288 -288h-960c-159 0 -288 129 -288 288v960c0 159 129 288 288 288h960c159 0 288 -129 288 -288z" />
    <glyph glyph-name="black-tie" unicode="&#xf27e;" 
d="M0 1408h1536v-1536h-1536v1536zM1085 293l-221 631l221 297h-634l221 -297l-221 -631l317 -304z" />
    <glyph glyph-name="blind" unicode="&#xf29d;" horiz-adv-x="1330" 
d="M327 1225c-86 0 -156 70 -156 156c0 85 70 155 156 155s155 -70 155 -155c0 -86 -69 -156 -155 -156zM878 583c0 -108 -115 -84 -141 -40l-367 438c-16 26 -28 14 -28 14s-7 -8 4 -21l122 -139l1 -354c-86 -250 -161 -457 -161 -457c-47 -134 -86 -250 -120 -266
c-41 -21 -71 -16 -103 -1c-42 19 -54 70 -51 100c0 0 2 16 197 618l5 416l-85 -164l35 -222c13 -84 -58 -95 -58 -95c-68 -11 -82 68 -82 70l-46 299c210 379 211 381 211 381c16 24 52 34 113 34c54 0 88 -16 107 -40l424 -521c6 -4 10 -10 14 -17l3 -3l-1 -1
c5 -9 7 -19 7 -29zM475 433c96 -255 182 -448 182 -448c29 -74 79 -180 6 -222c-72 -42 -130 7 -146 41h-1c-3 8 -6 16 -8 25l-124 351zM1299 -159c21 -33 39 -57 28 -64c-19 -12 -25 23 -46 57c0 0 -113 171 -423 661c6 -2 17 7 17 7s11 9 11 17
c308 -503 413 -678 413 -678z" />
    <glyph glyph-name="bluetooth" unicode="&#xf293;" horiz-adv-x="1322" 
d="M734 483l148 -148l-149 -149zM733 1094l149 -149l-148 -148zM603 -130l464 464l-306 306l306 306l-464 464v-611l-255 255l-93 -93l320 -321l-320 -321l93 -93l255 255v-611zM1322 640c0 -710 -270 -896 -661 -896s-661 186 -661 896s270 896 661 896s661 -186 661 -896z
" />
    <glyph glyph-name="bluetooth-b" unicode="&#xf294;" horiz-adv-x="944" 
d="M556 113l173 172l-173 172v-344zM556 823l173 172l-173 172v-344zM588 640l356 -356l-539 -540v711l-297 -296l-108 108l372 373l-372 373l108 108l297 -296v711l539 -540z" />
    <glyph glyph-name="bold" unicode="&#xf032;" horiz-adv-x="1408" 
d="M555 15c44 -19 92 -32 140 -32c228 0 376 91 376 335c0 62 -8 127 -41 180c-93 150 -227 158 -388 158c-30 0 -73 0 -101 -10c0 -106 -1 -212 -1 -317c0 -69 -9 -256 15 -314zM541 761c36 -6 73 -7 109 -7c206 0 353 58 353 289c0 195 -173 262 -340 262
c-44 0 -87 -6 -130 -13c0 -101 8 -202 8 -303c0 -53 -1 -106 -1 -159c0 -23 0 -46 1 -69zM0 -128l2 94c64 16 129 17 191 43c35 59 30 163 30 230c0 22 2 978 -22 1025c-15 29 -162 36 -195 40l-4 83c238 4 476 21 713 21c45 0 91 -1 136 -1c226 0 475 -108 475 -368
c0 -179 -136 -246 -277 -310c190 -43 359 -172 359 -382c0 -344 -313 -458 -606 -458c-88 0 -176 6 -264 6c-179 0 -360 -16 -538 -23z" />
    <glyph glyph-name="bolt" unicode="&#xf0e7;" horiz-adv-x="896" 
d="M885 970c11 -12 14 -29 7 -44l-540 -1157c-8 -15 -24 -25 -42 -25c-4 0 -9 1 -14 2c-22 7 -35 28 -30 49l197 808l-406 -101c-4 -1 -8 -1 -12 -1c-11 0 -23 4 -31 11c-12 10 -16 25 -13 39l201 825c5 19 23 32 44 32h328c25 0 45 -19 45 -42c0 -6 -2 -12 -5 -18
l-171 -463l396 98c4 1 8 2 12 2c13 0 25 -6 34 -15z" />
    <glyph glyph-name="bomb" unicode="&#xf1e2;" horiz-adv-x="1792" 
d="M571 947c-13 33 -50 48 -83 35c-144 -58 -260 -174 -318 -318c-13 -33 2 -70 35 -83c8 -3 16 -5 24 -5c26 0 49 15 60 40c45 112 135 202 247 247c33 14 49 51 35 84zM1513 1303l46 -46l-244 -243l68 -68c25 -25 25 -66 0 -91l-64 -64c56 -101 89 -218 89 -343
c0 -389 -315 -704 -704 -704s-704 315 -704 704s315 704 704 704c125 0 242 -33 343 -89l64 64c25 25 66 25 91 0l68 -68zM1521 1359c-6 -6 -14 -10 -22 -10c-9 0 -17 4 -23 10l-91 90c-12 13 -12 33 0 46c13 12 33 12 46 0l90 -91c13 -12 13 -33 0 -45zM1751 1129
c-7 -6 -15 -9 -23 -9s-16 3 -23 9l-90 91c-13 12 -13 33 0 45c12 13 33 13 45 0l91 -90c12 -13 12 -33 0 -46zM1792 1312c0 -18 -14 -32 -32 -32h-96c-18 0 -32 14 -32 32s14 32 32 32h96c18 0 32 -14 32 -32zM1600 1504v-96c0 -18 -14 -32 -32 -32s-32 14 -32 32v96
c0 18 14 32 32 32s32 -14 32 -32zM1751 1449l-91 -90c-6 -6 -14 -10 -22 -10c-9 0 -17 4 -23 10c-13 12 -13 33 0 45l90 91c13 12 33 12 46 0c12 -13 12 -33 0 -46z" />
    <glyph glyph-name="book" unicode="&#xf02d;" horiz-adv-x="1664" 
d="M1639 1058c25 -36 32 -83 18 -129l-275 -906c-25 -85 -113 -151 -199 -151h-923c-102 0 -211 81 -248 185c-16 45 -16 89 -2 127c2 20 6 40 7 64c1 16 -8 29 -6 41c4 24 25 41 41 68c30 50 64 131 75 183c5 19 -5 41 0 58c5 19 24 33 34 51c27 46 62 135 67 182
c2 21 -8 44 -2 60c7 23 29 33 44 53c24 33 64 128 70 181c2 17 -8 34 -5 52c4 19 28 39 44 62c42 62 50 199 177 163l-1 -3c17 4 34 9 51 9h761c47 0 89 -21 114 -56c26 -36 32 -83 18 -130l-274 -906c-47 -154 -73 -188 -200 -188h-869c-13 0 -29 -3 -38 -15
c-8 -12 -9 -21 -1 -43c20 -58 89 -70 144 -70h923c37 0 80 21 91 57l300 987c6 19 6 39 5 57c23 -9 44 -23 59 -43zM575 1056c-6 -18 4 -32 22 -32h608c17 0 36 14 42 32l21 64c6 18 -4 32 -22 32h-608c-17 0 -36 -14 -42 -32zM492 800c-6 -18 4 -32 22 -32h608
c17 0 36 14 42 32l21 64c6 18 -4 32 -22 32h-608c-17 0 -36 -14 -42 -32z" />
    <glyph glyph-name="bookmark" unicode="&#xf02e;" horiz-adv-x="1280" 
d="M1164 1408c15 0 30 -3 44 -9c44 -17 72 -58 72 -103v-1289c0 -45 -28 -86 -72 -103c-14 -6 -29 -8 -44 -8c-31 0 -60 11 -83 32l-441 424l-441 -424c-23 -21 -52 -33 -83 -33c-15 0 -30 3 -44 9c-44 17 -72 58 -72 103v1289c0 45 28 86 72 103c14 6 29 9 44 9h1048z" />
    <glyph glyph-name="bookmark-o" unicode="&#xf097;" horiz-adv-x="1280" 
d="M1152 1280h-1024v-1242l423 406l89 85l89 -85l423 -406v1242zM1164 1408c15 0 30 -3 44 -9c44 -17 72 -58 72 -103v-1289c0 -45 -28 -86 -72 -103c-14 -6 -29 -8 -44 -8c-31 0 -60 11 -83 32l-441 424l-441 -424c-23 -21 -52 -33 -83 -33c-15 0 -30 3 -44 9
c-44 17 -72 58 -72 103v1289c0 45 28 86 72 103c14 6 29 9 44 9h1048z" />
    <glyph glyph-name="bootstrap" unicode="&#xf315;" 
d="M256 1408h1024c141 0 256 -115 256 -256v-1024c0 -141 -115 -256 -256 -256h-1024c-141 0 -256 115 -256 256v1024c0 141 115 256 256 256zM494 1020v-795h310c169 0 270 83 270 223c0 106 -69 182 -177 196v4c77 14 137 91 137 174c0 119 -93 198 -229 198h-311z
M593 933h190c97 0 150 -44 150 -123c0 -86 -64 -133 -181 -133h-159v256zM593 592v0h187c127 0 192 -47 192 -139s-63 -141 -183 -141h-196v280z" />
    <glyph glyph-name="braille" unicode="&#xf2a1;" horiz-adv-x="2176" 
d="M192 352c-88 0 -160 -72 -160 -160s72 -160 160 -160s160 72 160 160s-72 160 -160 160zM704 352c-88 0 -160 -72 -160 -160s72 -160 160 -160s160 72 160 160s-72 160 -160 160zM704 864c-88 0 -160 -72 -160 -160s72 -160 160 -160s160 72 160 160s-72 160 -160 160z
M1472 352c-88 0 -160 -72 -160 -160s72 -160 160 -160s160 72 160 160s-72 160 -160 160zM1984 352c-88 0 -160 -72 -160 -160s72 -160 160 -160s160 72 160 160s-72 160 -160 160zM1472 864c-88 0 -160 -72 -160 -160s72 -160 160 -160s160 72 160 160s-72 160 -160 160z
M1984 864c-88 0 -160 -72 -160 -160s72 -160 160 -160s160 72 160 160s-72 160 -160 160zM1984 1376c-88 0 -160 -72 -160 -160s72 -160 160 -160s160 72 160 160s-72 160 -160 160zM384 192c0 -106 -86 -192 -192 -192s-192 86 -192 192s86 192 192 192s192 -86 192 -192z
M896 192c0 -106 -86 -192 -192 -192s-192 86 -192 192s86 192 192 192s192 -86 192 -192zM384 704c0 -106 -86 -192 -192 -192s-192 86 -192 192s86 192 192 192s192 -86 192 -192zM896 704c0 -106 -86 -192 -192 -192s-192 86 -192 192s86 192 192 192s192 -86 192 -192z
M384 1216c0 -106 -86 -192 -192 -192s-192 86 -192 192s86 192 192 192s192 -86 192 -192zM1664 192c0 -106 -86 -192 -192 -192s-192 86 -192 192s86 192 192 192s192 -86 192 -192zM896 1216c0 -106 -86 -192 -192 -192s-192 86 -192 192s86 192 192 192s192 -86 192 -192
zM2176 192c0 -106 -86 -192 -192 -192s-192 86 -192 192s86 192 192 192s192 -86 192 -192zM1664 704c0 -106 -86 -192 -192 -192s-192 86 -192 192s86 192 192 192s192 -86 192 -192zM2176 704c0 -106 -86 -192 -192 -192s-192 86 -192 192s86 192 192 192
s192 -86 192 -192zM1664 1216c0 -106 -86 -192 -192 -192s-192 86 -192 192s86 192 192 192s192 -86 192 -192zM2176 1216c0 -106 -86 -192 -192 -192s-192 86 -192 192s86 192 192 192s192 -86 192 -192z" />
    <glyph glyph-name="briefcase" unicode="&#xf0b1;" horiz-adv-x="1792" 
d="M640 1280h512v128h-512v-128zM1792 640v-480c0 -88 -72 -160 -160 -160h-1472c-88 0 -160 72 -160 160v480h672v-160c0 -35 29 -64 64 -64h320c35 0 64 29 64 64v160h672zM1024 640v-128h-256v128h256zM1792 1120v-384h-1792v384c0 88 72 160 160 160h352v160
c0 53 43 96 96 96h576c53 0 96 -43 96 -96v-160h352c88 0 160 -72 160 -160z" />
    <glyph glyph-name="btc" unicode="&#xf15a;" horiz-adv-x="1202" 
d="M1111 896c13 -133 -43 -213 -131 -258c146 -35 238 -122 220 -317c-23 -243 -203 -308 -461 -322v-255h-154v251c-39 0 -80 0 -122 1v-252h-154v255c-36 0 -72 1 -109 1h-200l31 183c113 -2 111 0 111 0c43 0 55 31 58 51v402h16c-6 1 -12 1 -16 1v287
c-6 32 -26 68 -89 68c0 0 2 2 -111 0v164l212 -1c31 0 64 0 97 1v252h154v-247c41 1 82 2 122 2v245h154v-252c198 -17 355 -78 372 -260zM896 351c0 198 -326 169 -430 169v-338c104 0 430 -22 430 169zM825 827c0 181 -272 154 -359 154v-307c87 0 359 -20 359 153z" />
    <glyph glyph-name="bug" unicode="&#xf188;" horiz-adv-x="1600" 
d="M1600 576c0 -35 -29 -64 -64 -64h-224c0 -125 -27 -219 -67 -290l208 -209c25 -25 25 -65 0 -90c-12 -13 -29 -19 -45 -19s-33 6 -45 19l-198 197s-131 -120 -301 -120v896h-128v-896c-181 0 -313 132 -313 132l-183 -207c-13 -14 -30 -21 -48 -21c-15 0 -30 5 -43 16
c-26 24 -28 64 -5 91l202 227c-35 69 -58 158 -58 274h-224c-35 0 -64 29 -64 64s29 64 64 64h224v294l-173 173c-25 25 -25 65 0 90s65 25 90 0l173 -173h844l173 173c25 25 65 25 90 0s25 -65 0 -90l-173 -173v-294h224c35 0 64 -29 64 -64zM1120 1152h-640
c0 177 143 320 320 320s320 -143 320 -320z" />
    <glyph glyph-name="building" unicode="&#xf1ad;" horiz-adv-x="1408" 
d="M1344 1536c35 0 64 -29 64 -64v-1664c0 -35 -29 -64 -64 -64h-1280c-35 0 -64 29 -64 64v1664c0 35 29 64 64 64h1280zM512 1248v-64c0 -18 14 -32 32 -32h64c18 0 32 14 32 32v64c0 18 -14 32 -32 32h-64c-18 0 -32 -14 -32 -32zM512 992v-64c0 -18 14 -32 32 -32h64
c18 0 32 14 32 32v64c0 18 -14 32 -32 32h-64c-18 0 -32 -14 -32 -32zM512 736v-64c0 -18 14 -32 32 -32h64c18 0 32 14 32 32v64c0 18 -14 32 -32 32h-64c-18 0 -32 -14 -32 -32zM512 480v-64c0 -18 14 -32 32 -32h64c18 0 32 14 32 32v64c0 18 -14 32 -32 32h-64
c-18 0 -32 -14 -32 -32zM384 160v64c0 18 -14 32 -32 32h-64c-18 0 -32 -14 -32 -32v-64c0 -18 14 -32 32 -32h64c18 0 32 14 32 32zM384 416v64c0 18 -14 32 -32 32h-64c-18 0 -32 -14 -32 -32v-64c0 -18 14 -32 32 -32h64c18 0 32 14 32 32zM384 672v64
c0 18 -14 32 -32 32h-64c-18 0 -32 -14 -32 -32v-64c0 -18 14 -32 32 -32h64c18 0 32 14 32 32zM384 928v64c0 18 -14 32 -32 32h-64c-18 0 -32 -14 -32 -32v-64c0 -18 14 -32 32 -32h64c18 0 32 14 32 32zM384 1184v64c0 18 -14 32 -32 32h-64c-18 0 -32 -14 -32 -32v-64
c0 -18 14 -32 32 -32h64c18 0 32 14 32 32zM896 -96v192c0 18 -14 32 -32 32h-320c-18 0 -32 -14 -32 -32v-192c0 -18 14 -32 32 -32h320c18 0 32 14 32 32zM896 416v64c0 18 -14 32 -32 32h-64c-18 0 -32 -14 -32 -32v-64c0 -18 14 -32 32 -32h64c18 0 32 14 32 32z
M896 672v64c0 18 -14 32 -32 32h-64c-18 0 -32 -14 -32 -32v-64c0 -18 14 -32 32 -32h64c18 0 32 14 32 32zM896 928v64c0 18 -14 32 -32 32h-64c-18 0 -32 -14 -32 -32v-64c0 -18 14 -32 32 -32h64c18 0 32 14 32 32zM896 1184v64c0 18 -14 32 -32 32h-64
c-18 0 -32 -14 -32 -32v-64c0 -18 14 -32 32 -32h64c18 0 32 14 32 32zM1152 160v64c0 18 -14 32 -32 32h-64c-18 0 -32 -14 -32 -32v-64c0 -18 14 -32 32 -32h64c18 0 32 14 32 32zM1152 416v64c0 18 -14 32 -32 32h-64c-18 0 -32 -14 -32 -32v-64c0 -18 14 -32 32 -32h64
c18 0 32 14 32 32zM1152 672v64c0 18 -14 32 -32 32h-64c-18 0 -32 -14 -32 -32v-64c0 -18 14 -32 32 -32h64c18 0 32 14 32 32zM1152 928v64c0 18 -14 32 -32 32h-64c-18 0 -32 -14 -32 -32v-64c0 -18 14 -32 32 -32h64c18 0 32 14 32 32zM1152 1184v64c0 18 -14 32 -32 32
h-64c-18 0 -32 -14 -32 -32v-64c0 -18 14 -32 32 -32h64c18 0 32 14 32 32z" />
    <glyph glyph-name="building-o" unicode="&#xf0f7;" horiz-adv-x="1408" 
d="M384 224v-64c0 -17 -15 -32 -32 -32h-64c-17 0 -32 15 -32 32v64c0 17 15 32 32 32h64c17 0 32 -15 32 -32zM384 480v-64c0 -17 -15 -32 -32 -32h-64c-17 0 -32 15 -32 32v64c0 17 15 32 32 32h64c17 0 32 -15 32 -32zM640 480v-64c0 -17 -15 -32 -32 -32h-64
c-17 0 -32 15 -32 32v64c0 17 15 32 32 32h64c17 0 32 -15 32 -32zM384 736v-64c0 -17 -15 -32 -32 -32h-64c-17 0 -32 15 -32 32v64c0 17 15 32 32 32h64c17 0 32 -15 32 -32zM1152 224v-64c0 -17 -15 -32 -32 -32h-64c-17 0 -32 15 -32 32v64c0 17 15 32 32 32h64
c17 0 32 -15 32 -32zM896 480v-64c0 -17 -15 -32 -32 -32h-64c-17 0 -32 15 -32 32v64c0 17 15 32 32 32h64c17 0 32 -15 32 -32zM640 736v-64c0 -17 -15 -32 -32 -32h-64c-17 0 -32 15 -32 32v64c0 17 15 32 32 32h64c17 0 32 -15 32 -32zM384 992v-64
c0 -17 -15 -32 -32 -32h-64c-17 0 -32 15 -32 32v64c0 17 15 32 32 32h64c17 0 32 -15 32 -32zM1152 480v-64c0 -17 -15 -32 -32 -32h-64c-17 0 -32 15 -32 32v64c0 17 15 32 32 32h64c17 0 32 -15 32 -32zM896 736v-64c0 -17 -15 -32 -32 -32h-64c-17 0 -32 15 -32 32v64
c0 17 15 32 32 32h64c17 0 32 -15 32 -32zM640 992v-64c0 -17 -15 -32 -32 -32h-64c-17 0 -32 15 -32 32v64c0 17 15 32 32 32h64c17 0 32 -15 32 -32zM384 1248v-64c0 -17 -15 -32 -32 -32h-64c-17 0 -32 15 -32 32v64c0 17 15 32 32 32h64c17 0 32 -15 32 -32zM1152 736
v-64c0 -17 -15 -32 -32 -32h-64c-17 0 -32 15 -32 32v64c0 17 15 32 32 32h64c17 0 32 -15 32 -32zM896 992v-64c0 -17 -15 -32 -32 -32h-64c-17 0 -32 15 -32 32v64c0 17 15 32 32 32h64c17 0 32 -15 32 -32zM640 1248v-64c0 -17 -15 -32 -32 -32h-64c-17 0 -32 15 -32 32
v64c0 17 15 32 32 32h64c17 0 32 -15 32 -32zM1152 992v-64c0 -17 -15 -32 -32 -32h-64c-17 0 -32 15 -32 32v64c0 17 15 32 32 32h64c17 0 32 -15 32 -32zM896 1248v-64c0 -17 -15 -32 -32 -32h-64c-17 0 -32 15 -32 32v64c0 17 15 32 32 32h64c17 0 32 -15 32 -32z
M1152 1248v-64c0 -17 -15 -32 -32 -32h-64c-17 0 -32 15 -32 32v64c0 17 15 32 32 32h64c17 0 32 -15 32 -32zM896 -128h384v1536h-1152v-1536h384v224c0 17 15 32 32 32h320c17 0 32 -15 32 -32v-224zM1408 1472v-1664c0 -35 -29 -64 -64 -64h-1280c-35 0 -64 29 -64 64
v1664c0 35 29 64 64 64h1280c35 0 64 -29 64 -64z" />
    <glyph glyph-name="bullhorn" unicode="&#xf0a1;" horiz-adv-x="1792" 
d="M1664 896c71 0 128 -57 128 -128s-57 -128 -128 -128v-384c0 -70 -58 -128 -128 -128c-178 148 -465 351 -812 380c-119 -40 -160 -179 -82 -259c-70 -115 20 -196 126 -279c-62 -122 -320 -124 -412 -39c-58 178 -144 356 -74 581h-122c-88 0 -160 72 -160 160v192
c0 88 72 160 160 160h480c384 0 704 224 896 384c70 0 128 -58 128 -128v-384zM1536 292v954c-261 -200 -514 -315 -768 -343v-270c254 -28 507 -141 768 -341z" />
    <glyph glyph-name="bullseye" unicode="&#xf140;" 
d="M1024 640c0 -141 -115 -256 -256 -256s-256 115 -256 256s115 256 256 256s256 -115 256 -256zM1152 640c0 212 -172 384 -384 384s-384 -172 -384 -384s172 -384 384 -384s384 172 384 384zM1280 640c0 -283 -229 -512 -512 -512s-512 229 -512 512s229 512 512 512
s512 -229 512 -512zM1408 640c0 353 -287 640 -640 640s-640 -287 -640 -640s287 -640 640 -640s640 287 640 640zM1536 640c0 -424 -344 -768 -768 -768s-768 344 -768 768s344 768 768 768s768 -344 768 -768z" />
    <glyph glyph-name="bus" unicode="&#xf207;" 
d="M384 320c0 71 -57 128 -128 128s-128 -57 -128 -128s57 -128 128 -128s128 57 128 128zM1408 320c0 71 -57 128 -128 128s-128 -57 -128 -128s57 -128 128 -128s128 57 128 128zM1362 716l-72 384c-6 30 -32 52 -63 52h-918c-31 0 -57 -22 -63 -52l-72 -384
c-7 -40 23 -76 63 -76h1062c40 0 70 36 63 76zM1136 1328c0 27 -21 48 -48 48h-640c-26 0 -48 -21 -48 -48s22 -48 48 -48h640c27 0 48 21 48 48zM1536 603v-603h-128v-128c0 -71 -57 -128 -128 -128s-128 57 -128 128v128h-768v-128c0 -71 -57 -128 -128 -128
s-128 57 -128 128v128h-128v603c0 82 7 143 25 223l103 454c19 160 299 256 640 256s621 -96 640 -256l105 -454c18 -80 23 -141 23 -223z" />
    <glyph glyph-name="buysellads" unicode="&#xf20d;" 
d="M915 450h-294l147 551zM1001 128h311l-324 1024h-440l-324 -1024h311l383 314zM1536 1120v-960c0 -158 -130 -288 -288 -288h-960c-158 0 -288 130 -288 288v960c0 158 130 288 288 288h960c158 0 288 -130 288 -288z" />
    <glyph glyph-name="c" unicode="&#xf31c;" horiz-adv-x="1404" 
d="M996 819c0 0 -23 211 -232 217s-317 -157 -317 -392s119 -423 323 -423s226 235 226 235l391 -24s22 -211 -141 -373s-364 -188 -504 -187s-334 -2 -522 190s-220 379 -220 563s36 427 259 611c152 125 306 172 460 172c643 0 685 -593 685 -593l-408 4v0z" />
    <glyph glyph-name="calculator" unicode="&#xf1ec;" horiz-adv-x="1664" 
d="M384 0c0 71 -57 128 -128 128s-128 -57 -128 -128s57 -128 128 -128s128 57 128 128zM768 0c0 71 -57 128 -128 128s-128 -57 -128 -128s57 -128 128 -128s128 57 128 128zM384 384c0 71 -57 128 -128 128s-128 -57 -128 -128s57 -128 128 -128s128 57 128 128zM1152 0
c0 71 -57 128 -128 128s-128 -57 -128 -128s57 -128 128 -128s128 57 128 128zM768 384c0 71 -57 128 -128 128s-128 -57 -128 -128s57 -128 128 -128s128 57 128 128zM384 768c0 71 -57 128 -128 128s-128 -57 -128 -128s57 -128 128 -128s128 57 128 128zM1152 384
c0 71 -57 128 -128 128s-128 -57 -128 -128s57 -128 128 -128s128 57 128 128zM768 768c0 71 -57 128 -128 128s-128 -57 -128 -128s57 -128 128 -128s128 57 128 128zM1536 0v384c0 70 -58 128 -128 128s-128 -58 -128 -128v-384c0 -70 58 -128 128 -128s128 58 128 128z
M1152 768c0 71 -57 128 -128 128s-128 -57 -128 -128s57 -128 128 -128s128 57 128 128zM1536 1088v256c0 35 -29 64 -64 64h-1280c-35 0 -64 -29 -64 -64v-256c0 -35 29 -64 64 -64h1280c35 0 64 29 64 64zM1536 768c0 71 -57 128 -128 128s-128 -57 -128 -128
s57 -128 128 -128s128 57 128 128zM1664 1408v-1536c0 -70 -58 -128 -128 -128h-1408c-70 0 -128 58 -128 128v1536c0 70 58 128 128 128h1408c70 0 128 -58 128 -128z" />
    <glyph glyph-name="calendar" unicode="&#xf073;" horiz-adv-x="1664" 
d="M128 -128h288v288h-288v-288zM480 -128h320v288h-320v-288zM128 224h288v320h-288v-320zM480 224h320v320h-320v-320zM128 608h288v288h-288v-288zM864 -128h320v288h-320v-288zM480 608h320v288h-320v-288zM1248 -128h288v288h-288v-288zM864 224h320v320h-320v-320z
M512 1088v288c0 17 -15 32 -32 32h-64c-17 0 -32 -15 -32 -32v-288c0 -17 15 -32 32 -32h64c17 0 32 15 32 32zM1248 224h288v320h-288v-320zM864 608h320v288h-320v-288zM1248 608h288v288h-288v-288zM1280 1088v288c0 17 -15 32 -32 32h-64c-17 0 -32 -15 -32 -32v-288
c0 -17 15 -32 32 -32h64c17 0 32 15 32 32zM1664 1152v-1280c0 -70 -58 -128 -128 -128h-1408c-70 0 -128 58 -128 128v1280c0 70 58 128 128 128h128v96c0 88 72 160 160 160h64c88 0 160 -72 160 -160v-96h384v96c0 88 72 160 160 160h64c88 0 160 -72 160 -160v-96h128
c70 0 128 -58 128 -128z" />
    <glyph glyph-name="calendar-check-o" unicode="&#xf274;" horiz-adv-x="1664" 
d="M1303 572l-512 -512c-13 -12 -33 -12 -46 0l-288 288c-12 13 -12 33 0 45l46 46c12 12 32 12 45 0l220 -220l444 444c13 12 33 12 45 0l46 -46c12 -12 12 -32 0 -45zM128 -128h1408v1024h-1408v-1024zM512 1088v288c0 18 -14 32 -32 32h-64c-18 0 -32 -14 -32 -32v-288
c0 -18 14 -32 32 -32h64c18 0 32 14 32 32zM1280 1088v288c0 18 -14 32 -32 32h-64c-18 0 -32 -14 -32 -32v-288c0 -18 14 -32 32 -32h64c18 0 32 14 32 32zM1664 1152v-1280c0 -70 -58 -128 -128 -128h-1408c-70 0 -128 58 -128 128v1280c0 70 58 128 128 128h128v96
c0 88 72 160 160 160h64c88 0 160 -72 160 -160v-96h384v96c0 88 72 160 160 160h64c88 0 160 -72 160 -160v-96h128c70 0 128 -58 128 -128z" />
    <glyph glyph-name="calendar-minus-o" unicode="&#xf272;" horiz-adv-x="1664" 
d="M1152 416v-64c0 -18 -14 -32 -32 -32h-576c-18 0 -32 14 -32 32v64c0 18 14 32 32 32h576c18 0 32 -14 32 -32zM128 -128h1408v1024h-1408v-1024zM512 1088v288c0 18 -14 32 -32 32h-64c-18 0 -32 -14 -32 -32v-288c0 -18 14 -32 32 -32h64c18 0 32 14 32 32zM1280 1088
v288c0 18 -14 32 -32 32h-64c-18 0 -32 -14 -32 -32v-288c0 -18 14 -32 32 -32h64c18 0 32 14 32 32zM1664 1152v-1280c0 -70 -58 -128 -128 -128h-1408c-70 0 -128 58 -128 128v1280c0 70 58 128 128 128h128v96c0 88 72 160 160 160h64c88 0 160 -72 160 -160v-96h384v96
c0 88 72 160 160 160h64c88 0 160 -72 160 -160v-96h128c70 0 128 -58 128 -128z" />
    <glyph glyph-name="calendar-o" unicode="&#xf133;" horiz-adv-x="1664" 
d="M128 -128h1408v1024h-1408v-1024zM512 1088v288c0 18 -14 32 -32 32h-64c-18 0 -32 -14 -32 -32v-288c0 -18 14 -32 32 -32h64c18 0 32 14 32 32zM1280 1088v288c0 18 -14 32 -32 32h-64c-18 0 -32 -14 -32 -32v-288c0 -18 14 -32 32 -32h64c18 0 32 14 32 32zM1664 1152
v-1280c0 -70 -58 -128 -128 -128h-1408c-70 0 -128 58 -128 128v1280c0 70 58 128 128 128h128v96c0 88 72 160 160 160h64c88 0 160 -72 160 -160v-96h384v96c0 88 72 160 160 160h64c88 0 160 -72 160 -160v-96h128c70 0 128 -58 128 -128z" />
    <glyph glyph-name="calendar-plus-o" unicode="&#xf271;" horiz-adv-x="1664" 
d="M1536 1280c70 0 128 -58 128 -128v-1280c0 -70 -58 -128 -128 -128h-1408c-70 0 -128 58 -128 128v1280c0 70 58 128 128 128h128v96c0 88 72 160 160 160h64c88 0 160 -72 160 -160v-96h384v96c0 88 72 160 160 160h64c88 0 160 -72 160 -160v-96h128zM1152 1376v-288
c0 -18 14 -32 32 -32h64c18 0 32 14 32 32v288c0 18 -14 32 -32 32h-64c-18 0 -32 -14 -32 -32zM384 1376v-288c0 -18 14 -32 32 -32h64c18 0 32 14 32 32v288c0 18 -14 32 -32 32h-64c-18 0 -32 -14 -32 -32zM1536 -128v1024h-1408v-1024h1408zM896 448h224
c18 0 32 -14 32 -32v-64c0 -18 -14 -32 -32 -32h-224v-224c0 -18 -14 -32 -32 -32h-64c-18 0 -32 14 -32 32v224h-224c-18 0 -32 14 -32 32v64c0 18 14 32 32 32h224v224c0 18 14 32 32 32h64c18 0 32 -14 32 -32v-224z" />
    <glyph glyph-name="calendar-times-o" unicode="&#xf273;" horiz-adv-x="1664" 
d="M1111 151l-46 -46c-12 -12 -32 -12 -45 0l-188 189l-188 -189c-13 -12 -33 -12 -45 0l-46 46c-12 12 -12 32 0 45l189 188l-189 188c-12 13 -12 33 0 45l46 46c12 12 32 12 45 0l188 -188l188 188c13 12 33 12 45 0l46 -46c12 -12 12 -32 0 -45l-188 -188l188 -188
c12 -13 12 -33 0 -45zM128 -128h1408v1024h-1408v-1024zM512 1088v288c0 18 -14 32 -32 32h-64c-18 0 -32 -14 -32 -32v-288c0 -18 14 -32 32 -32h64c18 0 32 14 32 32zM1280 1088v288c0 18 -14 32 -32 32h-64c-18 0 -32 -14 -32 -32v-288c0 -18 14 -32 32 -32h64
c18 0 32 14 32 32zM1664 1152v-1280c0 -70 -58 -128 -128 -128h-1408c-70 0 -128 58 -128 128v1280c0 70 58 128 128 128h128v96c0 88 72 160 160 160h64c88 0 160 -72 160 -160v-96h384v96c0 88 72 160 160 160h64c88 0 160 -72 160 -160v-96h128c70 0 128 -58 128 -128z
" />
    <glyph glyph-name="camera" unicode="&#xf030;" horiz-adv-x="1920" 
d="M960 864c159 0 288 -129 288 -288s-129 -288 -288 -288s-288 129 -288 288s129 288 288 288zM1664 1280c141 0 256 -115 256 -256v-896c0 -141 -115 -256 -256 -256h-1408c-141 0 -256 115 -256 256v896c0 141 115 256 256 256h224l51 136c25 66 103 120 173 120h512
c70 0 148 -54 173 -120l51 -136h224zM960 128c247 0 448 201 448 448s-201 448 -448 448s-448 -201 -448 -448s201 -448 448 -448z" />
    <glyph glyph-name="camera-retro" unicode="&#xf083;" horiz-adv-x="1792" 
d="M928 704c0 18 -14 32 -32 32c-88 0 -160 -72 -160 -160c0 -18 14 -32 32 -32s32 14 32 32c0 53 43 96 96 96c18 0 32 14 32 32zM1152 574c0 -141 -115 -256 -256 -256s-256 115 -256 256s115 256 256 256s256 -115 256 -256zM128 0h1536v128h-1536v-128zM1280 574
c0 212 -172 384 -384 384s-384 -172 -384 -384s172 -384 384 -384s384 172 384 384zM256 1216h384v128h-384v-128zM128 1024h1536v256h-828l-64 -128h-644v-128zM1792 1280v-1280c0 -71 -57 -128 -128 -128h-1536c-71 0 -128 57 -128 128v1280c0 71 57 128 128 128h1536
c71 0 128 -57 128 -128z" />
    <glyph glyph-name="car" unicode="&#xf1b9;" horiz-adv-x="2048" 
d="M480 448c0 88 -72 160 -160 160s-160 -72 -160 -160s72 -160 160 -160s160 72 160 160zM516 768h1016l-89 357c-3 11 -23 27 -35 27h-768c-12 0 -32 -16 -35 -27zM1888 448c0 88 -72 160 -160 160s-160 -72 -160 -160s72 -160 160 -160s160 72 160 160zM2048 544v-384
c0 -18 -14 -32 -32 -32h-96v-128c0 -106 -86 -192 -192 -192s-192 86 -192 192v128h-1024v-128c0 -106 -86 -192 -192 -192s-192 86 -192 192v128h-96c-18 0 -32 14 -32 32v384c0 124 100 224 224 224h28l105 419c31 126 153 221 283 221h768c130 0 252 -95 283 -221
l105 -419h28c124 0 224 -100 224 -224z" />
    <glyph glyph-name="caret-down" unicode="&#xf0d7;" horiz-adv-x="1024" 
d="M1024 832c0 -17 -7 -33 -19 -45l-448 -448c-12 -12 -28 -19 -45 -19s-33 7 -45 19l-448 448c-12 12 -19 28 -19 45c0 35 29 64 64 64h896c35 0 64 -29 64 -64z" />
    <glyph glyph-name="caret-left" unicode="&#xf0d9;" horiz-adv-x="576" 
d="M576 1088v-896c0 -35 -29 -64 -64 -64c-17 0 -33 7 -45 19l-448 448c-12 12 -19 28 -19 45s7 33 19 45l448 448c12 12 28 19 45 19c35 0 64 -29 64 -64z" />
    <glyph glyph-name="caret-right" unicode="&#xf0da;" horiz-adv-x="576" 
d="M576 640c0 -17 -7 -33 -19 -45l-448 -448c-12 -12 -28 -19 -45 -19c-35 0 -64 29 -64 64v896c0 35 29 64 64 64c17 0 33 -7 45 -19l448 -448c12 -12 19 -28 19 -45z" />
    <glyph glyph-name="caret-square-o-down" unicode="&#xf150;" 
d="M1145 861c11 -21 9 -47 -5 -66l-320 -448c-12 -17 -31 -27 -52 -27s-40 10 -52 27l-320 448c-14 19 -16 45 -5 66c11 22 33 35 57 35h640c24 0 46 -13 57 -35zM1280 160v960c0 17 -15 32 -32 32h-960c-17 0 -32 -15 -32 -32v-960c0 -17 15 -32 32 -32h960
c17 0 32 15 32 32zM1536 1120v-960c0 -159 -129 -288 -288 -288h-960c-159 0 -288 129 -288 288v960c0 159 129 288 288 288h960c159 0 288 -129 288 -288z" />
    <glyph glyph-name="caret-square-o-left" unicode="&#xf191;" 
d="M1024 960v-640c0 -35 -29 -64 -64 -64c-13 0 -26 4 -37 12l-448 320c-17 12 -27 31 -27 52c0 20 10 40 27 52l448 320c11 8 24 12 37 12c35 0 64 -29 64 -64zM1280 160v960c0 17 -15 32 -32 32h-960c-17 0 -32 -15 -32 -32v-960c0 -17 15 -32 32 -32h960
c17 0 32 15 32 32zM1536 1120v-960c0 -159 -129 -288 -288 -288h-960c-159 0 -288 129 -288 288v960c0 159 129 288 288 288h960c159 0 288 -129 288 -288z" />
    <glyph glyph-name="caret-square-o-right" unicode="&#xf152;" 
d="M1088 640c0 -21 -10 -40 -27 -52l-448 -320c-19 -14 -45 -16 -66 -5c-22 11 -35 33 -35 57v640c0 24 13 46 35 57c21 11 47 9 66 -5l448 -320c17 -12 27 -31 27 -52zM1280 160v960c0 18 -14 32 -32 32h-960c-18 0 -32 -14 -32 -32v-960c0 -18 14 -32 32 -32h960
c18 0 32 14 32 32zM1536 1120v-960c0 -159 -129 -288 -288 -288h-960c-159 0 -288 129 -288 288v960c0 159 129 288 288 288h960c159 0 288 -129 288 -288z" />
    <glyph glyph-name="caret-square-o-up" unicode="&#xf151;" 
d="M1145 419c-11 -22 -33 -35 -57 -35h-640c-24 0 -46 13 -57 35c-11 21 -9 47 5 66l320 448c12 17 31 27 52 27s40 -10 52 -27l320 -448c14 -19 16 -45 5 -66zM1280 160v960c0 17 -15 32 -32 32h-960c-17 0 -32 -15 -32 -32v-960c0 -17 15 -32 32 -32h960c17 0 32 15 32 32
zM1536 1120v-960c0 -159 -129 -288 -288 -288h-960c-159 0 -288 129 -288 288v960c0 159 129 288 288 288h960c159 0 288 -129 288 -288z" />
    <glyph glyph-name="caret-up" unicode="&#xf0d8;" horiz-adv-x="1024" 
d="M1024 320c0 -35 -29 -64 -64 -64h-896c-35 0 -64 29 -64 64c0 17 7 33 19 45l448 448c12 12 28 19 45 19s33 -7 45 -19l448 -448c12 -12 19 -28 19 -45z" />
    <glyph glyph-name="cart-arrow-down" unicode="&#xf218;" horiz-adv-x="1664" 
d="M1280 832c0 35 -29 64 -64 64c-17 0 -33 -7 -45 -19l-147 -146v293c0 35 -29 64 -64 64s-64 -29 -64 -64v-293l-147 146c-12 12 -28 19 -45 19c-35 0 -64 -29 -64 -64c0 -17 7 -33 19 -45l256 -256c12 -12 28 -19 45 -19s33 7 45 19l256 256c12 12 19 28 19 45zM640 0
c0 -71 -57 -128 -128 -128s-128 57 -128 128s57 128 128 128s128 -57 128 -128zM1536 0c0 -71 -57 -128 -128 -128s-128 57 -128 128s57 128 128 128s128 -57 128 -128zM1664 1088v-512c0 -32 -24 -60 -57 -64l-1044 -122c4 -22 13 -47 13 -70s-14 -44 -24 -64h920
c35 0 64 -29 64 -64s-29 -64 -64 -64h-1024c-35 0 -64 29 -64 64c0 31 47 108 61 137l-177 823h-204c-35 0 -64 29 -64 64s29 64 64 64h256c68 0 69 -80 79 -128h1201c35 0 64 -29 64 -64z" />
    <glyph glyph-name="cart-plus" unicode="&#xf217;" horiz-adv-x="1664" 
d="M1216 832c0 35 -29 64 -64 64h-128v128c0 35 -29 64 -64 64s-64 -29 -64 -64v-128h-128c-35 0 -64 -29 -64 -64s29 -64 64 -64h128v-128c0 -35 29 -64 64 -64s64 29 64 64v128h128c35 0 64 29 64 64zM640 0c0 -71 -57 -128 -128 -128s-128 57 -128 128s57 128 128 128
s128 -57 128 -128zM1536 0c0 -71 -57 -128 -128 -128s-128 57 -128 128s57 128 128 128s128 -57 128 -128zM1664 1088v-512c0 -32 -24 -60 -57 -64l-1044 -122c4 -22 13 -47 13 -70s-14 -44 -24 -64h920c35 0 64 -29 64 -64s-29 -64 -64 -64h-1024c-35 0 -64 29 -64 64
c0 31 47 108 61 137l-177 823h-204c-35 0 -64 29 -64 64s29 64 64 64h256c68 0 69 -80 79 -128h1201c35 0 64 -29 64 -64z" />
    <glyph glyph-name="cc" unicode="&#xf20a;" horiz-adv-x="2048" 
d="M785 528h207c-19 -211 -140 -339 -313 -339c-216 0 -347 166 -347 432c0 264 144 429 326 429c200 0 312 -124 329 -334h-203c-7 85 -49 134 -117 134c-75 0 -120 -80 -120 -238c0 -115 20 -223 129 -223c69 0 101 60 109 139zM1497 528h206
c-19 -211 -139 -339 -312 -339c-216 0 -347 166 -347 432c0 264 144 429 326 429c200 0 312 -124 329 -334h-204c-6 85 -49 134 -116 134c-75 0 -120 -80 -120 -238c0 -115 19 -223 128 -223c69 0 102 60 110 139zM1856 647c0 268 -14 384 -76 468c-13 17 -34 28 -51 40
c-63 46 -356 63 -697 63s-648 -17 -710 -63c-18 -13 -40 -23 -53 -40c-62 -83 -75 -200 -75 -468c0 -269 14 -385 75 -468c14 -19 35 -27 53 -41c62 -46 369 -65 710 -65s634 18 697 65c17 13 39 21 51 41c63 82 76 199 76 468zM2048 1408v-1536h-2048v1536h2048z" />
    <glyph glyph-name="cc-amex" unicode="&#xf1f3;" horiz-adv-x="2304" 
d="M119 854h89l-45 108zM740 328l74 79l-70 79h-163v-49h142v-55h-142v-54h159zM898 406l99 -110v217zM1186 453c0 24 -18 33 -40 33h-84v-69h83c23 0 41 11 41 36zM1475 457c0 25 -22 29 -42 29h-82v-61h81c22 0 43 5 43 32zM1197 923c0 25 -22 29 -42 29h-82v-60h81
c22 0 43 5 43 31zM1656 854h89l-44 108zM699 1009v-271h-66v212l-94 -212h-57l-94 212v-212h-132l-25 60h-135l-25 -60h-70l116 271h96l110 -257v257h106l85 -184l77 184h108zM1255 453c0 -109 -119 -91 -193 -91v-91h-126l-80 90l-83 -90h-256v271h260l80 -89l82 89h207
c61 0 109 -21 109 -89zM964 794v-56h-217v271h217v-57h-152v-49h148v-55h-148v-54h152zM2304 235v-229c0 -73 -59 -134 -132 -134h-2040c-73 0 -132 61 -132 134v678h111l25 61h55l25 -61h218v46l19 -46h113l20 47v-47h541v99l10 1c9 0 10 -7 10 -14v-86h279v23
c65 -34 154 -23 222 -23l25 61h56l25 -61h227v58l34 -58h182v378h-180v-44l-25 44h-185v-44l-23 44h-249c-37 0 -76 -4 -109 -22v22h-172v-22c-20 18 -47 22 -73 22h-628l-43 -97l-43 97h-198v-44l-22 44h-169l-78 -179v391c0 73 59 134 132 134h2040c73 0 132 -61 132 -134
v-678h-120c-28 0 -58 -5 -81 -22v22h-177c-25 0 -59 -4 -78 -22v22h-316v-22c-24 17 -59 22 -87 22h-209v-22c-21 20 -64 22 -91 22h-234l-54 -58l-50 58h-349v-378h343l55 59l52 -59h211v89h21c30 0 61 1 90 13v-102h174v99h8c10 0 12 -1 12 -12v-87h529c29 0 65 6 88 24
v-24h168c32 0 66 3 95 17zM1546 469c0 -30 -16 -60 -46 -72c36 -13 43 -37 43 -72v-54h-65v45c0 46 -15 54 -58 54h-69v-99h-65v271h154c51 0 106 -9 106 -73zM1269 936c0 -31 -17 -61 -46 -73c37 -13 43 -36 43 -72v-53h-65c-1 58 14 98 -58 98h-70v-98h-64v271l153 -1
c52 0 107 -8 107 -72zM1798 327v-56h-216v271h216v-56h-151v-49h148v-55h-148v-54zM1372 1009v-271h-66v271h66zM2065 357c0 -64 -44 -86 -102 -86h-126v58h126c16 0 34 4 34 25c0 58 -167 -22 -167 107c0 55 42 81 92 81h130v-57h-119c-17 0 -36 -3 -36 -25
c0 -59 168 27 168 -103zM2304 407v-101c-19 -28 -56 -35 -88 -35h-125v58h125c16 0 33 5 33 25c0 57 -167 -22 -167 107c0 55 43 81 93 81h129v-57h-118c-18 0 -36 -3 -36 -25c0 -48 113 1 154 -53zM2139 1008v-270h-92l-122 203v-203h-132l-26 60h-134l-25 -60h-75
c-89 0 -129 46 -129 133c0 91 41 138 133 138h63v-59c-68 1 -130 16 -130 -77c0 -46 11 -78 63 -78h29l92 213h97l109 -256v256h99l114 -188v188h66z" />
    <glyph glyph-name="cc-diners-club" unicode="&#xf24c;" horiz-adv-x="2304" 
d="M858 295v693c-139 -54 -238 -189 -238 -347s99 -293 238 -346zM1362 641c0 158 -99 293 -238 347v-694c139 54 238 189 238 347zM1577 641c0 -323 -262 -586 -586 -586c-323 0 -586 263 -586 586c0 324 263 586 586 586c324 0 586 -262 586 -586zM1960 634
c0 382 -319 646 -669 646h-301c-354 0 -646 -264 -646 -646c0 -349 292 -634 646 -634h301c350 0 669 285 669 634zM2304 1280v-1280c0 -70 -58 -128 -128 -128h-2048c-70 0 -128 58 -128 128v1280c0 70 58 128 128 128h2048c70 0 128 -58 128 -128z" />
    <glyph glyph-name="cc-discover" unicode="&#xf1f2;" horiz-adv-x="2304" 
d="M313 759c0 -32 -13 -63 -36 -84c-20 -18 -47 -26 -89 -26h-17v220h17c42 0 68 -7 89 -27c23 -20 36 -51 36 -83zM2089 824c0 -34 -22 -52 -64 -52h-19v101h20c41 0 63 -17 63 -49zM380 759c0 98 -73 167 -179 167h-95v-333h95c50 0 87 11 119 38c38 32 60 79 60 128z
M410 593h65v333h-65v-333zM730 694c0 53 -22 77 -96 104c-39 14 -50 24 -50 42c0 21 20 37 48 37c20 0 36 -8 53 -27l34 44c-28 25 -62 37 -98 37c-59 0 -104 -41 -104 -95c0 -46 21 -70 82 -92c25 -9 38 -14 45 -19c13 -8 19 -20 19 -34c0 -27 -21 -47 -50 -47
c-31 0 -56 15 -71 44l-42 -40c30 -44 66 -64 115 -64c68 0 115 45 115 110zM1008 604v77c-26 -26 -49 -37 -78 -37c-66 0 -112 48 -112 115c0 64 48 115 109 115c31 0 54 -11 81 -38v77c-28 14 -52 20 -80 20c-98 0 -177 -77 -177 -174c0 -98 77 -174 176 -174
c28 0 52 5 81 19zM2240 0v527c-160 -100 -723 -420 -1633 -591h1569c35 0 64 29 64 64zM1389 757c0 100 -81 181 -181 181s-181 -81 -181 -181s81 -181 181 -181s181 81 181 181zM1541 584l144 342h-71l-90 -224l-89 224h-71l142 -342h35zM1714 593h184v56h-119v90h115v56
h-115v74h119v57h-184v-333zM2105 593h80l-105 140c49 10 76 43 76 94c0 63 -43 99 -118 99h-97v-333h65v133h9zM2304 1274v-1268c0 -74 -59 -134 -132 -134h-2040c-73 0 -132 60 -132 134v1268c0 74 59 134 132 134h2040c73 0 132 -60 132 -134z" />
    <glyph glyph-name="cc-jcb" unicode="&#xf24b;" horiz-adv-x="2304" 
d="M1951 538c0 -36 -24 -62 -54 -68c-4 -1 -13 -2 -18 -2h-153v140h153c5 0 14 -1 18 -2c30 -6 54 -33 54 -68zM1933 751c0 -35 -24 -58 -53 -63c-3 -1 -10 -1 -15 -1h-139v129h139c5 0 12 -1 15 -1c29 -5 53 -29 53 -64zM728 587v308h-228v-308c0 -75 -51 -131 -143 -131
c-78 0 -155 23 -229 59v-112c120 -33 272 -33 272 -33c254 0 328 97 328 217zM1442 403v113c-52 -27 -118 -53 -200 -59c-144 -11 -230 59 -230 183s86 194 230 183c82 -6 147 -31 200 -58v112c-107 27 -208 31 -208 31c-352 16 -452 -123 -452 -268s100 -284 452 -268
c0 0 101 4 208 31zM2176 518c0 74 -66 122 -152 128v3c78 11 121 62 121 121c0 76 -63 120 -148 124c-6 0 -17 1 -26 1h-455v-510h491c97 0 169 52 169 133zM2304 1280v-1280c0 -70 -58 -128 -128 -128h-2048c-70 0 -128 58 -128 128v1280c0 70 58 128 128 128h2048
c70 0 128 -58 128 -128z" />
    <glyph glyph-name="cc-mastercard" unicode="&#xf1f1;" horiz-adv-x="2304" 
d="M1119 1195c-83 55 -181 85 -281 85c-281 0 -509 -228 -509 -508c0 -281 228 -509 509 -509c100 0 198 30 281 85c-268 218 -266 629 0 847zM1152 1171c-258 -203 -259 -597 0 -799c259 202 258 596 0 799zM1185 1195c265 -218 269 -630 0 -847c83 -55 182 -85 281 -85
c281 0 509 228 509 509c0 280 -228 508 -509 508c-100 0 -198 -30 -281 -85zM1926 473h7v3h-17v-3h7v-17h3v17zM1955 456h4v20h-5l-6 -13l-6 13h-5v-20h3v15l6 -13h4l5 13v-15zM1947 16v-2h-5v3h5v-1zM1947 7h3l-4 5c2 0 2 1 3 1c1 1 1 2 1 3s0 2 -1 3c-1 0 -2 1 -4 1h-6
v-13h3v5h1zM685 75c0 24 15 43 41 43c24 0 40 -19 40 -43c0 -25 -16 -43 -40 -43c-26 0 -41 19 -41 43zM1158 119c19 0 32 -11 35 -32h-70c3 19 15 32 35 32zM1514 75c0 24 15 43 40 43s41 -19 41 -43c0 -25 -16 -43 -41 -43s-40 19 -40 43zM1786 75c0 24 16 43 41 43
c24 0 41 -19 41 -43c0 -25 -17 -43 -41 -43c-25 0 -41 19 -41 43zM1944 3c-1 0 -2 0 -4 1c-1 0 -2 1 -3 2s-2 2 -2 3c-1 2 -1 3 -1 4c0 2 0 3 1 4c0 2 1 3 2 4s2 1 3 2c2 1 3 1 4 1c2 0 3 0 4 -1c2 -1 3 -1 4 -2s1 -2 2 -4c0 -1 1 -2 1 -4c0 -1 -1 -2 -1 -4
c-1 -1 -1 -2 -2 -3s-2 -2 -4 -2c-1 -1 -2 -1 -4 -1zM599 7h30v85c0 32 -21 53 -54 54c-17 0 -35 -5 -47 -24c-9 15 -24 24 -45 24c-14 0 -28 -5 -39 -20v16h-30v-135h30v75c0 24 13 36 33 36s30 -13 30 -36v-75h29v75c0 24 14 36 33 36c20 0 30 -13 30 -36v-75zM765 7h29
v135h-29v-16c-10 12 -24 20 -43 20c-38 0 -67 -30 -67 -71s29 -71 67 -71c19 0 33 7 43 20v-17zM943 48c0 24 -18 36 -47 40l-14 2c-13 2 -23 5 -23 14s9 15 25 15c18 0 34 -6 43 -11l12 24c-14 9 -33 14 -55 14c-34 0 -56 -17 -56 -44c0 -22 16 -35 47 -39l13 -2
c17 -3 24 -7 24 -14c0 -11 -11 -17 -31 -17s-35 7 -45 14l-13 -23c16 -11 36 -17 58 -17c39 0 62 18 62 44zM1073 14l-8 25c-9 -5 -18 -7 -26 -7c-15 0 -19 9 -19 22v61h48v27h-48v41h-30v-41h-28v-27h28v-61c0 -31 12 -50 47 -50c12 0 27 4 36 10zM1159 146
c-39 0 -67 -29 -67 -71c0 -43 29 -71 69 -71c20 0 39 5 55 19l-14 22c-11 -9 -26 -15 -39 -15c-19 0 -36 9 -41 33h101v12c0 42 -26 71 -64 71zM1318 146c-17 0 -28 -8 -35 -20v16h-30v-135h30v76c0 22 9 35 29 35c6 0 12 -1 18 -4l9 28c-7 3 -15 4 -21 4zM1348 75
c0 -41 28 -71 72 -71c20 0 34 4 48 16l-14 24c-11 -8 -22 -13 -35 -12c-24 0 -41 17 -41 43s17 43 41 43c13 0 24 -4 35 -12l14 24c-14 11 -28 16 -48 16c-44 0 -72 -30 -72 -71zM1593 7h30v135h-30v-16c-9 12 -23 20 -42 20c-38 0 -68 -30 -68 -71s30 -71 68 -71
c19 0 33 7 42 20v-17zM1726 146c-17 0 -28 -8 -35 -20v16h-29v-135h29v76c0 22 10 35 29 35c6 0 12 -1 18 -4l9 28c-6 3 -15 4 -21 4zM1866 7h29v190h-29v-71c-9 12 -23 20 -43 20c-37 0 -67 -30 -67 -71s30 -71 67 -71c20 0 34 7 43 20v-17zM1944 27c-1 0 -3 -1 -5 -1
c-2 -1 -3 -2 -4 -3c-2 -1 -3 -3 -3 -4c-1 -2 -1 -4 -1 -6c0 -1 0 -3 1 -5c0 -1 1 -3 3 -4c1 -1 2 -2 4 -3s4 -1 5 -1c2 0 4 0 6 1c1 1 3 2 4 3s2 3 3 4c1 2 1 4 1 5c0 2 0 4 -1 6c-1 1 -2 3 -3 4s-3 2 -4 3c-2 0 -4 1 -6 1zM2304 1280v-1280c0 -70 -58 -128 -128 -128h-2048
c-70 0 -128 58 -128 128v1280c0 70 58 128 128 128h2048c70 0 128 -58 128 -128z" />
    <glyph glyph-name="cc-paypal" unicode="&#xf1f4;" horiz-adv-x="2304" 
d="M745 630c0 -49 -39 -86 -88 -86c-37 0 -64 21 -64 60c0 49 38 88 87 88c37 0 65 -23 65 -62zM1530 779c0 -60 -36 -72 -88 -72l-32 -1l17 107c1 7 6 11 13 11h18c34 0 72 -2 72 -45zM1881 630c0 -49 -39 -86 -87 -86c-37 0 -65 21 -65 60c0 49 38 88 87 88
c37 0 65 -23 65 -62zM513 801c0 84 -65 112 -139 112h-160c-10 0 -20 -8 -21 -19l-65 -408c-1 -8 5 -16 13 -16h76c11 0 21 8 22 19l18 110c4 29 53 19 72 19c114 0 184 68 184 183zM822 489l41 261c1 8 -5 16 -13 16h-76c-15 0 -16 -22 -17 -33c-23 34 -57 40 -95 40
c-98 0 -173 -86 -173 -181c0 -78 49 -129 127 -129c36 0 81 16 106 44c-2 -6 -4 -15 -4 -21c0 -9 4 -16 13 -16h69c11 0 20 8 22 19zM1269 752c0 7 -6 14 -13 14h-77c-7 0 -14 -4 -18 -10l-106 -156l-44 150c-3 9 -12 16 -22 16h-75c-7 0 -13 -7 -13 -14
c0 -5 78 -231 85 -252c-11 -15 -82 -108 -82 -120c0 -7 6 -13 13 -13h77c7 0 14 4 18 10l255 368c2 2 2 4 2 7zM1649 801c0 84 -65 112 -139 112h-159c-11 0 -21 -8 -22 -19l-65 -408c-1 -8 5 -16 13 -16h82c8 0 14 6 16 13l18 116c4 29 53 19 72 19c114 0 184 68 184 183z
M1958 489l41 261c1 8 -5 16 -13 16h-76c-15 0 -16 -22 -17 -33c-22 34 -56 40 -95 40c-98 0 -173 -86 -173 -181c0 -78 49 -129 127 -129c37 0 82 16 106 44c-1 -6 -4 -15 -4 -21c0 -9 4 -16 13 -16h69c11 0 20 8 22 19zM2176 898v1c0 8 -6 14 -13 14h-74
c-6 0 -12 -5 -13 -11l-65 -416l-1 -2c0 -7 6 -14 14 -14h66c10 0 20 8 21 19zM392 764c-8 -51 -42 -57 -86 -57l-33 -1l17 107c1 7 7 11 13 11h19c45 0 79 -6 70 -60zM2304 1280v-1280c0 -70 -58 -128 -128 -128h-2048c-70 0 -128 58 -128 128v1280c0 70 58 128 128 128
h2048c70 0 128 -58 128 -128z" />
    <glyph glyph-name="cc-stripe" unicode="&#xf1f5;" horiz-adv-x="2304" 
d="M1597 633c0 -46 -7 -81 -21 -106c-12 -22 -31 -35 -52 -35c-15 0 -29 3 -41 9v224c26 27 49 30 57 30c38 0 57 -42 57 -122zM2035 669h-110c4 67 22 98 56 98s52 -32 54 -98zM476 534c0 84 -51 119 -134 149c-44 16 -68 29 -68 49c0 17 14 26 38 26c46 0 92 -17 124 -33
l18 112c-25 12 -77 32 -149 32c-51 0 -93 -13 -123 -38c-32 -26 -48 -64 -48 -109c0 -82 50 -118 132 -147c52 -19 70 -32 70 -53c0 -20 -17 -31 -48 -31c-38 0 -101 19 -142 43l-18 -113c35 -20 100 -41 168 -41c54 0 98 13 129 37c34 27 51 66 51 117zM771 749l19 111h-96
v135l-129 -21l-18 -114l-46 -8l-17 -103h62v-219c0 -57 15 -96 44 -120c25 -20 61 -30 111 -30c39 0 62 7 79 11v118c-9 -2 -30 -7 -44 -7c-29 0 -42 16 -42 50v197h77zM1087 724v139c-10 2 -19 3 -28 3c-42 0 -76 -22 -89 -62l-10 56h-131v-471h150v306c19 23 46 31 82 31
c8 0 16 0 26 -2zM1124 389h150v471h-150v-471zM1746 638c0 80 -15 141 -45 179c-27 35 -64 52 -111 52c-43 0 -81 -18 -117 -56l-8 47h-132v-645l150 25v151c23 -7 47 -11 68 -11c37 0 92 10 134 56c41 44 61 112 61 202zM1278 986c0 44 -35 79 -79 79s-79 -35 -79 -79
s35 -80 79 -80s79 36 79 80zM2176 629c0 75 -16 134 -48 176c-33 42 -82 64 -144 64c-128 0 -207 -94 -207 -246c0 -84 21 -148 63 -188c37 -37 91 -55 161 -55c64 0 123 15 160 40l-16 103c-37 -20 -80 -31 -128 -31c-29 0 -49 6 -63 19c-16 13 -25 35 -28 66h248
c1 7 2 41 2 52zM2304 1280v-1280c0 -70 -58 -128 -128 -128h-2048c-70 0 -128 58 -128 128v1280c0 70 58 128 128 128h2048c70 0 128 -58 128 -128z" />
    <glyph glyph-name="cc-visa" unicode="&#xf1f0;" horiz-adv-x="2304" 
d="M1975 546h-138s14 37 66 179c-1 -1 14 37 22 61l12 -55c31 -153 38 -185 38 -185zM531 611l-58 295c-8 41 -39 54 -75 54h-268l-2 -13c184 -47 335 -147 403 -336zM710 960l-162 -438l-17 89c-35 93 -120 179 -216 218l135 -510h175l261 641h-176zM849 318h166l104 642
h-166zM1617 944c-33 13 -85 27 -149 27c-164 0 -279 -87 -280 -212c-1 -92 82 -143 145 -174c65 -31 86 -52 86 -80c0 -43 -52 -62 -99 -62c-67 0 -103 8 -156 33l-22 11l-23 -144c39 -18 110 -34 185 -34c174 -1 287 86 289 219c0 73 -45 128 -140 174
c-58 29 -93 50 -93 80c0 27 30 55 95 55c54 1 94 -10 124 -24l15 -8zM2042 960h-128c-40 0 -70 -12 -87 -54l-246 -588h174c28 79 35 96 35 96h212s5 -22 20 -96h154zM2304 1280v-1280c0 -70 -58 -128 -128 -128h-2048c-70 0 -128 58 -128 128v1280c0 70 58 128 128 128
h2048c70 0 128 -58 128 -128z" />
    <glyph glyph-name="certificate" unicode="&#xf0a3;" 
d="M1376 640l138 -135c19 -18 26 -45 20 -70c-7 -25 -27 -45 -52 -51l-188 -48l53 -186c7 -25 0 -52 -19 -70c-18 -19 -45 -26 -70 -19l-186 53l-48 -188c-6 -25 -26 -45 -51 -52c-6 -1 -13 -2 -19 -2c-19 0 -38 8 -51 22l-135 138l-135 -138c-18 -19 -45 -26 -70 -20
c-26 7 -45 27 -51 52l-48 188l-186 -53c-25 -7 -52 0 -70 19c-19 18 -26 45 -19 70l53 186l-188 48c-25 6 -45 26 -52 51c-6 25 1 52 20 70l138 135l-138 135c-19 18 -26 45 -20 70c7 25 27 45 52 51l188 48l-53 186c-7 25 0 52 19 70c18 19 45 26 70 19l186 -53l48 188
c6 25 26 45 51 51c25 7 52 0 70 -19l135 -139l135 139c18 19 44 26 70 19c25 -6 45 -26 51 -51l48 -188l186 53c25 7 52 0 70 -19c19 -18 26 -45 19 -70l-53 -186l188 -48c25 -6 45 -26 52 -51c6 -25 -1 -52 -20 -70z" />
    <glyph glyph-name="chain-broken" unicode="&#xf127;" horiz-adv-x="1664" 
d="M439 265l-256 -256c-7 -6 -15 -9 -23 -9s-16 3 -23 9c-12 13 -12 33 0 46l256 256c13 12 33 12 46 0c12 -13 12 -33 0 -46zM608 224v-320c0 -18 -14 -32 -32 -32s-32 14 -32 32v320c0 18 14 32 32 32s32 -14 32 -32zM384 448c0 -18 -14 -32 -32 -32h-320
c-18 0 -32 14 -32 32s14 32 32 32h320c18 0 32 -14 32 -32zM1648 320c0 -77 -30 -149 -85 -203l-147 -146c-54 -54 -126 -83 -203 -83s-150 30 -204 85l-334 335c-17 17 -30 36 -42 56l239 18l273 -274c36 -36 100 -37 136 -1l147 146c18 18 28 42 28 67c0 26 -10 50 -28 68
l-274 275l18 239c20 -12 39 -25 56 -42l336 -336c54 -55 84 -127 84 -204zM1031 1044l-239 -18l-273 274c-18 18 -42 28 -68 28s-50 -10 -68 -27l-147 -146c-18 -18 -28 -42 -28 -67c0 -26 10 -50 28 -68l274 -274l-18 -240c-20 12 -39 25 -56 42l-336 336
c-54 55 -84 127 -84 204s30 149 85 203l147 146c54 54 126 83 203 83s150 -30 204 -85l334 -335c17 -17 30 -36 42 -56zM1664 960c0 -18 -14 -32 -32 -32h-320c-18 0 -32 14 -32 32s14 32 32 32h320c18 0 32 -14 32 -32zM1120 1504v-320c0 -18 -14 -32 -32 -32
s-32 14 -32 32v320c0 18 14 32 32 32s32 -14 32 -32zM1527 1353l-256 -256c-7 -6 -15 -9 -23 -9s-16 3 -23 9c-12 13 -12 33 0 46l256 256c13 12 33 12 46 0c12 -13 12 -33 0 -46z" />
    <glyph glyph-name="check" unicode="&#xf00c;" horiz-adv-x="1550" 
d="M1550 970c0 -25 -10 -50 -28 -68l-724 -724l-136 -136c-18 -18 -43 -28 -68 -28s-50 10 -68 28l-136 136l-362 362c-18 18 -28 43 -28 68s10 50 28 68l136 136c18 18 43 28 68 28s50 -10 68 -28l294 -295l656 657c18 18 43 28 68 28s50 -10 68 -28l136 -136
c18 -18 28 -43 28 -68z" />
    <glyph glyph-name="check-circle" unicode="&#xf058;" 
d="M1284 802c0 17 -6 34 -18 46l-91 90c-12 12 -28 19 -45 19s-33 -7 -45 -19l-408 -407l-226 226c-12 12 -28 19 -45 19s-33 -7 -45 -19l-91 -90c-12 -12 -18 -29 -18 -46s6 -33 18 -45l362 -362c12 -12 29 -19 45 -19c17 0 34 7 46 19l543 543c12 12 18 28 18 45z
M1536 640c0 -424 -344 -768 -768 -768s-768 344 -768 768s344 768 768 768s768 -344 768 -768z" />
    <glyph glyph-name="check-circle-o" unicode="&#xf05d;" 
d="M1171 723l-422 -422c-25 -25 -65 -25 -90 0l-294 294c-25 25 -25 65 0 90l102 102c25 25 65 25 90 0l147 -147l275 275c25 25 65 25 90 0l102 -102c25 -25 25 -65 0 -90zM1312 640c0 300 -244 544 -544 544s-544 -244 -544 -544s244 -544 544 -544s544 244 544 544z
M1536 640c0 -424 -344 -768 -768 -768s-768 344 -768 768s344 768 768 768s768 -344 768 -768z" />
    <glyph glyph-name="check-square" unicode="&#xf14a;" 
d="M685 237l614 614c25 25 25 65 0 90l-102 102c-25 25 -65 25 -90 0l-467 -467l-211 211c-25 25 -65 25 -90 0l-102 -102c-25 -25 -25 -65 0 -90l358 -358c25 -25 65 -25 90 0zM1536 1120v-960c0 -159 -129 -288 -288 -288h-960c-159 0 -288 129 -288 288v960
c0 159 129 288 288 288h960c159 0 288 -129 288 -288z" />
    <glyph glyph-name="check-square-o" unicode="&#xf046;" horiz-adv-x="1663" 
d="M1408 606v-318c0 -159 -129 -288 -288 -288h-832c-159 0 -288 129 -288 288v832c0 159 129 288 288 288h832c40 0 80 -8 117 -25c9 -4 16 -13 18 -23c2 -11 -1 -21 -9 -29l-49 -49c-6 -6 -15 -10 -23 -10c-3 0 -6 1 -9 2c-15 4 -30 6 -45 6h-832
c-88 0 -160 -72 -160 -160v-832c0 -88 72 -160 160 -160h832c88 0 160 72 160 160v254c0 8 3 16 9 22l64 64c7 7 15 10 23 10c4 0 8 -1 12 -3c12 -5 20 -16 20 -29zM1639 1095l-814 -814c-32 -32 -82 -32 -114 0l-430 430c-32 32 -32 82 0 114l110 110c32 32 82 32 114 0
l263 -263l647 647c32 32 82 32 114 0l110 -110c32 -32 32 -82 0 -114z" />
    <glyph glyph-name="chevron-circle-down" unicode="&#xf13a;" 
d="M813 237l454 454c25 25 25 65 0 90l-102 102c-25 25 -65 25 -90 0l-307 -307l-307 307c-25 25 -65 25 -90 0l-102 -102c-25 -25 -25 -65 0 -90l454 -454c25 -25 65 -25 90 0zM1536 640c0 -424 -344 -768 -768 -768s-768 344 -768 768s344 768 768 768s768 -344 768 -768z
" />
    <glyph glyph-name="chevron-circle-left" unicode="&#xf137;" 
d="M909 141l102 102c25 25 25 65 0 90l-307 307l307 307c25 25 25 65 0 90l-102 102c-25 25 -65 25 -90 0l-454 -454c-25 -25 -25 -65 0 -90l454 -454c25 -25 65 -25 90 0zM1536 640c0 -424 -344 -768 -768 -768s-768 344 -768 768s344 768 768 768s768 -344 768 -768z" />
    <glyph glyph-name="chevron-circle-right" unicode="&#xf138;" 
d="M717 141l454 454c25 25 25 65 0 90l-454 454c-25 25 -65 25 -90 0l-102 -102c-25 -25 -25 -65 0 -90l307 -307l-307 -307c-25 -25 -25 -65 0 -90l102 -102c25 -25 65 -25 90 0zM1536 640c0 -424 -344 -768 -768 -768s-768 344 -768 768s344 768 768 768
s768 -344 768 -768z" />
    <glyph glyph-name="chevron-circle-up" unicode="&#xf139;" 
d="M1165 397l102 102c25 25 25 65 0 90l-454 454c-25 25 -65 25 -90 0l-454 -454c-25 -25 -25 -65 0 -90l102 -102c25 -25 65 -25 90 0l307 307l307 -307c25 -25 65 -25 90 0zM1536 640c0 -424 -344 -768 -768 -768s-768 344 -768 768s344 768 768 768s768 -344 768 -768z
" />
    <glyph glyph-name="chevron-down" unicode="&#xf078;" horiz-adv-x="1612" 
d="M1593 728l-742 -741c-25 -25 -65 -25 -90 0l-742 741c-25 25 -25 66 0 91l166 165c25 25 65 25 90 0l531 -531l531 531c25 25 65 25 90 0l166 -165c25 -25 25 -66 0 -91z" />
    <glyph glyph-name="chevron-left" unicode="&#xf053;" horiz-adv-x="1036" 
d="M1017 1235l-531 -531l531 -531c25 -25 25 -65 0 -90l-166 -166c-25 -25 -65 -25 -90 0l-742 742c-25 25 -25 65 0 90l742 742c25 25 65 25 90 0l166 -166c25 -25 25 -65 0 -90z" />
    <glyph glyph-name="chevron-right" unicode="&#xf054;" horiz-adv-x="1036" 
d="M1017 659l-742 -742c-25 -25 -65 -25 -90 0l-166 166c-25 25 -25 65 0 90l531 531l-531 531c-25 25 -25 65 0 90l166 166c25 25 65 25 90 0l742 -742c25 -25 25 -65 0 -90z" />
    <glyph glyph-name="chevron-up" unicode="&#xf077;" horiz-adv-x="1612" 
d="M1593 205l-166 -165c-25 -25 -65 -25 -90 0l-531 531l-531 -531c-25 -25 -65 -25 -90 0l-166 165c-25 25 -25 66 0 91l742 741c25 25 65 25 90 0l742 -741c25 -25 25 -66 0 -91z" />
    <glyph glyph-name="child" unicode="&#xf1ae;" horiz-adv-x="1152" 
d="M1124 988l-292 -292v-824c0 -62 -50 -112 -112 -112s-112 50 -112 112v384h-64v-384c0 -62 -50 -112 -112 -112s-112 50 -112 112v824l-292 292c-37 38 -37 98 0 136c38 37 98 37 136 0l228 -228h368l228 228c38 37 98 37 136 0c37 -38 37 -98 0 -136zM800 1152
c0 -124 -100 -224 -224 -224s-224 100 -224 224s100 224 224 224s224 -100 224 -224z" />
    <glyph glyph-name="chrome" unicode="&#xf268;" horiz-adv-x="1792" 
d="M893 1536c153 1 309 -38 451 -120c157 -91 276 -222 352 -372l-742 39c-210 12 -410 -106 -479 -304l-276 424c172 214 430 332 694 333zM146 1131l337 -663c95 -187 296 -301 504 -262l-230 -451c-429 66 -757 437 -757 885c0 181 54 350 146 491zM1732 962
c157 -404 0 -874 -388 -1098c-157 -91 -330 -128 -498 -119l405 623c115 177 113 408 -24 568zM896 942c167 0 302 -135 302 -302s-135 -302 -302 -302s-302 135 -302 302s135 302 302 302z" />
    <glyph glyph-name="circle" unicode="&#xf111;" 
d="M1536 640c0 -424 -344 -768 -768 -768s-768 344 -768 768s344 768 768 768s768 -344 768 -768z" />
    <glyph glyph-name="circle-o" unicode="&#xf10c;" 
d="M768 1184c-300 0 -544 -244 -544 -544s244 -544 544 -544s544 244 544 544s-244 544 -544 544zM1536 640c0 -424 -344 -768 -768 -768s-768 344 -768 768s344 768 768 768s768 -344 768 -768z" />
    <glyph glyph-name="circle-o-notch" unicode="&#xf1ce;" horiz-adv-x="1728" 
d="M1728 640c0 -477 -387 -864 -864 -864s-864 387 -864 864c0 434 320 793 736 855v-228c-292 -59 -512 -318 -512 -627c0 -353 287 -640 640 -640s640 287 640 640c0 309 -220 568 -512 627v228c416 -62 736 -421 736 -855z" />
    <glyph glyph-name="circle-thin" unicode="&#xf1db;" 
d="M768 1280c-353 0 -640 -287 -640 -640s287 -640 640 -640s640 287 640 640s-287 640 -640 640zM1536 640c0 -424 -344 -768 -768 -768s-768 344 -768 768s344 768 768 768s768 -344 768 -768z" />
    <glyph glyph-name="clipboard" unicode="&#xf0ea;" horiz-adv-x="1792" 
d="M768 -128h896v640h-416c-53 0 -96 43 -96 96v416h-384v-1152zM1024 1312v64c0 17 -15 32 -32 32h-704c-17 0 -32 -15 -32 -32v-64c0 -17 15 -32 32 -32h704c17 0 32 15 32 32zM1280 640h299l-299 299v-299zM1792 512v-672c0 -53 -43 -96 -96 -96h-960
c-53 0 -96 43 -96 96v160h-544c-53 0 -96 43 -96 96v1344c0 53 43 96 96 96h1088c53 0 96 -43 96 -96v-328c13 -8 25 -17 36 -28l408 -408c38 -38 68 -111 68 -164z" />
    <glyph glyph-name="clock-o" unicode="&#xf017;" 
d="M896 992v-448c0 -18 -14 -32 -32 -32h-320c-18 0 -32 14 -32 32v64c0 18 14 32 32 32h224v352c0 18 14 32 32 32h64c18 0 32 -14 32 -32zM1312 640c0 300 -244 544 -544 544s-544 -244 -544 -544s244 -544 544 -544s544 244 544 544zM1536 640
c0 -424 -344 -768 -768 -768s-768 344 -768 768s344 768 768 768s768 -344 768 -768z" />
    <glyph glyph-name="clone" unicode="&#xf24d;" horiz-adv-x="1792" 
d="M1664 -96v1088c0 17 -15 32 -32 32h-1088c-17 0 -32 -15 -32 -32v-1088c0 -17 15 -32 32 -32h1088c17 0 32 15 32 32zM1792 992v-1088c0 -88 -72 -160 -160 -160h-1088c-88 0 -160 72 -160 160v1088c0 88 72 160 160 160h1088c88 0 160 -72 160 -160zM1408 1376v-160
h-128v160c0 17 -15 32 -32 32h-1088c-17 0 -32 -15 -32 -32v-1088c0 -17 15 -32 32 -32h160v-128h-160c-88 0 -160 72 -160 160v1088c0 88 72 160 160 160h1088c88 0 160 -72 160 -160z" />
    </font>
</defs>
</svg>
