<?xml version="1.0" standalone="no"?>
<!DOCTYPE svg PUBLIC "-//W3C//DTD SVG 1.1//EN" "http://www.w3.org/Graphics/SVG/1.1/DTD/svg11.dtd" >
<svg xmlns="../../../../../external.html?link=http://www.w3.org/2000/svg">
<metadata>Generated by IcoMoon</metadata>
<defs>
<font id="Material-Design-Icons" horiz-adv-x="1024">
<font-face units-per-em="1024" ascent="960" descent="-64" />
<missing-glyph horiz-adv-x="1024" />
<glyph unicode="&#x20;" d="" horiz-adv-x="512" />
<glyph unicode="&#xe600;" d="M320.853 22.187c-139.52 65.707-239.36 201.387-254.72 361.813h-64c21.76-262.827 241.493-469.333 509.867-469.333l28.16 1.28-162.56 162.56-56.747-56.32zM358.827 300.374c-8.107 0-15.787 1.28-22.187 3.413-6.827 2.56-12.373 5.547-17.067 10.24-4.693 4.267-8.533 9.387-11.093 15.787-2.56 5.973-3.84 12.8-3.84 20.053h-55.467c0-15.36 2.987-29.013 8.96-40.533s14.080-21.333 23.893-29.44c10.24-7.68 21.76-13.653 34.987-17.493 12.8-4.267 26.453-6.4 40.96-6.4 15.787 0 30.72 2.133 43.947 6.4 13.653 4.267 25.6 10.667 35.413 18.773s17.92 18.347 23.467 30.72c5.547 12.373 8.533 26.027 8.533 41.387 0 8.107-0.853 16.213-2.987 23.893s-5.12 14.933-9.813 21.76c-4.267 6.827-10.24 12.8-17.067 18.347-7.253 5.547-15.787 9.813-26.027 13.227 8.533 3.84 15.787 8.533 22.187 14.080s11.52 11.52 15.787 17.92c4.267 6.4 7.253 12.8 9.387 19.627s2.987 13.653 2.987 20.48c0 15.36-2.56 29.013-7.68 40.96s-12.373 21.76-21.76 29.44c-8.533 8.107-20.053 14.080-32.853 18.347-13.227 3.84-27.733 5.973-43.52 5.973-15.36 0-29.44-2.133-42.667-6.827-12.8-4.693-24.32-11.093-33.707-19.2-8.96-8.107-16.213-17.493-21.76-28.587-5.12-11.093-7.68-23.040-7.68-36.267h55.467c0 7.253 1.28 13.653 3.84 19.2s5.973 10.667 10.667 14.507c4.693 3.84 9.813 7.253 16.213 9.387s12.8 3.413 20.48 3.413c17.067 0 29.867-4.267 37.973-13.227 8.107-8.533 12.373-20.907 12.373-36.693 0-7.68-1.28-14.507-3.413-20.907s-5.973-11.52-10.667-15.787c-4.693-4.267-10.667-7.68-17.493-10.24s-15.36-3.84-24.747-3.84h-32.853v-43.947h32.853c9.387 0 17.92-0.853 25.6-2.987s14.080-5.547 19.2-9.813c5.12-4.693 9.387-10.24 12.373-17.067s4.267-14.933 4.267-24.32c0-17.493-5.12-30.72-14.933-39.68-9.813-9.813-23.467-14.080-40.533-14.080zM723.627 552.96c-13.653 14.080-29.867 25.173-48.64 32.853-18.347 7.68-39.253 11.52-62.293 11.52h-100.693v-341.333h98.133c23.467 0 45.227 3.84 64.427 11.52s35.84 18.347 49.493 32.427c13.653 14.080 24.32 31.147 31.573 50.773 7.253 20.053 11.093 42.24 11.093 66.987v17.067c0 24.747-3.84 46.933-11.093 66.987-7.68 20.053-18.347 37.12-32 51.2zM706.987 418.134c0-17.92-2.133-33.707-5.973-48.213-4.267-14.080-10.24-26.453-18.347-36.267s-18.347-17.493-30.293-22.613c-12.373-5.12-26.453-7.68-42.24-7.68h-38.827v246.187h41.387c30.72 0 54.187-9.813 69.973-29.44 16.213-19.627 24.32-47.787 24.32-84.907v-17.067zM512 938.667l-28.16-1.28 162.56-162.56 56.747 56.747c139.52-66.133 239.36-201.387 254.293-361.813h64c-21.333 262.4-241.067 468.907-509.44 468.907z" />
<glyph unicode="&#xe601;" d="M512 853.334c46.933 0 85.333-38.4 85.333-85.333s-38.4-85.333-85.333-85.333-85.333 38.4-85.333 85.333 38.4 85.333 85.333 85.333zM896 554.667h-256v-554.667h-85.333v256h-85.333v-256h-85.333v554.667h-256v85.333h768v-85.333z" />
<glyph unicode="&#xe602;" d="M896 170.667v-42.667c0-46.933-38.4-85.333-85.333-85.333h-597.333c-47.36 0-85.333 38.4-85.333 85.333v597.333c0 46.933 37.973 85.333 85.333 85.333h597.333c46.933 0 85.333-38.4 85.333-85.333v-42.667h-384c-47.36 0-85.333-38.4-85.333-85.333v-341.333c0-46.933 37.973-85.333 85.333-85.333h384zM512 256h426.667v341.333h-426.667v-341.333zM682.667 362.667c-35.413 0-64 28.587-64 64s28.587 64 64 64 64-28.587 64-64-28.587-64-64-64z" />
<glyph unicode="&#xe603;" d="M170.667 512v-298.667h128v298.667h-128zM426.667 512v-298.667h128v298.667h-128zM85.333-0h810.667v128h-810.667v-128zM682.667 512v-298.667h128v298.667h-128zM490.667 896l-405.333-213.333v-85.333h810.667v85.333l-405.333 213.333z" />
<glyph unicode="&#xe604;" d="M128 725.334v-597.333c0-46.933 37.973-85.333 85.333-85.333h597.333c46.933 0 85.333 38.4 85.333 85.333v597.333c0 46.933-38.4 85.333-85.333 85.333h-597.333c-47.36 0-85.333-38.4-85.333-85.333zM640 554.667c0-70.827-57.173-128-128-128s-128 57.173-128 128 57.173 128 128 128 128-57.173 128-128zM256 213.334c0 85.333 170.667 132.267 256 132.267s256-46.933 256-132.267v-42.667h-512v42.667z" />
<glyph unicode="&#xe605;" d="M576 363.094c0-35.346-28.654-64-64-64s-64 28.654-64 64c0 35.346 28.654 64 64 64s64-28.654 64-64zM512 853.334c-235.52 0-426.667-191.147-426.667-426.667s191.147-426.667 426.667-426.667 426.667 191.147 426.667 426.667-191.147 426.667-426.667 426.667zM512 746.667c52.907 0 96-43.093 96-96s-43.093-96-96-96-96 43.093-96 96 43.093 96 96 96zM725.333 296.107v-106.667c-19.2-17.493-40.96-32.853-64-44.8v29.013c0 14.507-7.253 27.733-19.627 39.253-27.733 26.453-80.64 43.52-129.707 43.52-40.96 0-83.627-11.947-113.067-31.147l-7.253-5.12-8.96-7.253c33.28-20.053 69.547-30.72 108.373-34.987l56.747-6.4c15.787-1.707 28.16-15.36 28.16-32 0-12.373-6.827-22.613-17.067-28.16-11.947-6.4-27.307-3.84-40.533-3.84-14.933 0-29.44 0.427-43.947 2.133-21.333 2.56-42.24 7.253-62.293 14.080-20.907 6.827-41.387 16.213-60.587 27.307-9.387 5.547-18.773 11.52-27.733 18.347l-13.227 10.24c-1.707 0.853-11.947 7.68-11.947 9.813v182.613c0 67.413 112.213 118.613 213.333 118.613s213.333-51.2 213.333-118.613v-75.947z" />
<glyph unicode="&#xe606;" d="M512 853.334c-235.52 0-426.667-191.147-426.667-426.667s191.147-426.667 426.667-426.667 426.667 191.147 426.667 426.667-191.147 426.667-426.667 426.667zM512 725.334c70.827 0 128-57.173 128-128s-57.173-128-128-128-128 57.173-128 128 57.173 128 128 128zM512 119.467c-106.667 0-200.96 54.613-256 137.387 1.28 84.907 170.667 131.413 256 131.413 84.907 0 254.72-46.507 256-131.413-55.040-82.773-149.333-137.387-256-137.387z" />
<glyph unicode="&#xe607;" d="M469.333 554.667h85.333v128h128v85.333h-128v128h-85.333v-128h-128v-85.333h128v-128zM298.667 170.667c-46.933 0-84.907-38.4-84.907-85.333s37.973-85.333 84.907-85.333 85.333 38.4 85.333 85.333-38.4 85.333-85.333 85.333zM725.333 170.667c-46.933 0-84.907-38.4-84.907-85.333s37.973-85.333 84.907-85.333 85.333 38.4 85.333 85.333-38.4 85.333-85.333 85.333zM305.92 309.334l1.28 5.12 38.4 69.547h317.867c32 0 60.16 17.493 74.667 43.947l164.693 299.093-74.24 40.96h-0.427l-46.933-85.333-117.76-213.333h-299.52l-5.547 11.52-95.573 201.813-40.533 85.333-40.107 85.333h-139.52v-85.333h85.333l153.6-323.84-57.6-104.533c-6.827-11.947-10.667-26.027-10.667-40.96 0-46.933 38.4-85.333 85.333-85.333h512v85.333h-494.080c-5.547 0-10.667 4.693-10.667 10.667z" />
<glyph unicode="&#xe608;" d="M336.213 794.027l-54.613 65.28-196.267-164.267 55.040-65.28 195.84 164.267zM938.667 694.614l-196.267 164.693-55.040-65.28 196.267-164.693 55.040 65.28zM512 768c-212.053 0-384-171.947-384-384s171.52-384 384-384c212.053 0 384 171.947 384 384s-171.947 384-384 384zM512 85.334c-165.12 0-298.667 133.547-298.667 298.667s133.547 298.667 298.667 298.667 298.667-133.547 298.667-298.667-133.547-298.667-298.667-298.667zM554.667 554.667h-85.333v-128h-128v-85.333h128v-128h85.333v128h128v85.333h-128v128z" />
<glyph unicode="&#xe609;" d="M512 682.667c165.12 0 298.667-133.547 298.667-298.667 0-35.84-6.827-70.4-18.347-102.4l64.853-64.853c24.747 50.773 38.827 107.093 38.827 167.253 0 212.053-171.947 384-384 384-60.16 0-116.48-14.080-167.253-38.827l64.853-64.853c32 11.52 66.56 18.347 102.4 18.347zM938.667 694.614l-196.267 164.693-55.040-65.28 196.267-164.693 55.040 65.28zM124.587 840.96l-54.187-54.613 56.747-56.747-47.36-39.68 60.587-60.587 47.36 40.107 34.133-34.133c-58.453-67.413-93.867-155.307-93.867-251.307 0-212.053 171.52-384 384-384 96 0 183.893 35.413 251.307 93.867l93.867-93.867 54.187 54.187-786.773 786.773zM702.72 154.027c-51.627-42.667-118.187-68.693-190.72-68.693-165.12 0-298.667 133.547-298.667 298.667 0 72.533 26.027 139.093 68.693 190.72l420.693-420.693zM342.187 798.72l-60.587 60.587-36.693-30.293 60.587-60.587 36.693 30.293z" />
<glyph unicode="&#xe60a;" d="M938.667 694.614l-196.267 164.693-55.040-65.28 196.267-164.693 55.040 65.28zM336.213 794.027l-54.613 65.28-196.267-164.267 55.040-65.28 195.84 164.267zM512 768c-212.053 0-384-171.947-384-384s171.52-384 384-384c212.053 0 384 171.947 384 384s-171.947 384-384 384zM512 85.334c-165.12 0-298.667 133.547-298.667 298.667s133.547 298.667 298.667 298.667 298.667-133.547 298.667-298.667-133.547-298.667-298.667-298.667zM449.707 318.72l-90.88 90.88-45.227-45.227 135.68-135.68 256 256-45.227 45.227-210.347-211.2z" />
<glyph unicode="&#xe60b;" d="M938.667 694.614l-196.267 164.693-55.040-65.28 196.267-164.693 55.040 65.28zM336.213 794.027l-54.613 65.28-196.267-164.267 55.040-65.28 195.84 164.267zM533.333 597.334h-64v-256l202.667-121.6 32 52.48-170.667 101.12v224zM512 768c-212.053 0-384-171.947-384-384s171.52-384 384-384c212.053 0 384 171.947 384 384s-171.947 384-384 384zM512 85.334c-165.12 0-298.667 133.547-298.667 298.667s133.547 298.667 298.667 298.667 298.667-133.547 298.667-298.667-133.547-298.667-298.667-298.667z" />
<glyph unicode="&#xe60c;" d="M256 170.667c0-23.467 19.2-42.667 42.667-42.667h42.667v-149.333c0-35.413 28.587-64 64-64s64 28.587 64 64v149.333h85.333v-149.333c0-35.413 28.587-64 64-64s64 28.587 64 64v149.333h42.667c23.467 0 42.667 19.2 42.667 42.667v426.667h-512v-426.667zM149.333 597.334c-35.413 0-64-28.587-64-64v-298.667c0-35.413 28.587-64 64-64s64 28.587 64 64v298.667c0 35.413-28.587 64-64 64zM874.667 597.334c-35.413 0-64-28.587-64-64v-298.667c0-35.413 28.587-64 64-64s64 28.587 64 64v298.667c0 35.413-28.587 64-64 64zM662.613 846.507l55.467 55.467c8.533 8.533 8.533 21.76 0 30.293s-21.76 8.533-30.293 0l-63.147-63.147c-33.707 17.067-72.107 26.88-112.64 26.88-40.96 0-79.36-9.813-113.493-26.88l-63.573 63.147c-8.533 8.533-21.76 8.533-30.293 0s-8.533-21.76 0-30.293l55.893-55.893c-63.147-46.507-104.533-121.173-104.533-206.080h512c0 84.907-41.387 160-105.387 206.507zM426.667 725.334h-42.667v42.667h42.667v-42.667zM640 725.334h-42.667v42.667h42.667v-42.667z" />
<glyph unicode="&#xe60d;" d="M853.333 853.334h-682.667c-46.933 0-84.907-38.4-84.907-85.333l-0.427-768 170.667 170.667h597.333c46.933 0 85.333 38.4 85.333 85.333v512c0 46.933-38.4 85.333-85.333 85.333zM554.667 469.334h-85.333v256h85.333v-256zM554.667 298.667h-85.333v85.333h85.333v-85.333z" />
<glyph unicode="&#xe60e;" d="M810.667 426.667h-85.333v-128h-128v-85.333h213.333v213.333zM298.667 554.667h128v85.333h-213.333v-213.333h85.333v128zM896 810.667h-768c-46.933 0-85.333-38.4-85.333-85.333v-597.333c0-46.933 38.4-85.333 85.333-85.333h768c46.933 0 85.333 38.4 85.333 85.333v597.333c0 46.933-38.4 85.333-85.333 85.333zM896 127.574h-768v598.187h768v-598.187z" />
<glyph unicode="&#xe60f;" d="M810.667 810.667h-597.333c-46.933 0-85.333-38.4-85.333-85.333v-597.333c0-46.933 38.4-85.333 85.333-85.333h597.333c46.933 0 85.333 38.4 85.333 85.333v597.333c0 46.933-38.4 85.333-85.333 85.333zM384 213.334h-85.333v298.667h85.333v-298.667zM554.667 213.334h-85.333v426.667h85.333v-426.667zM725.333 213.334h-85.333v170.667h85.333v-170.667z" />
<glyph unicode="&#xe610;" d="M810.667 810.667h-178.347c-17.92 49.493-64.853 85.333-120.32 85.333s-102.4-35.84-120.32-85.333h-178.347c-46.933 0-85.333-38.4-85.333-85.333v-597.333c0-46.933 38.4-85.333 85.333-85.333h597.333c46.933 0 85.333 38.4 85.333 85.333v597.333c0 46.933-38.4 85.333-85.333 85.333zM512 810.667c23.467 0 42.667-19.2 42.667-42.667s-19.2-42.667-42.667-42.667-42.667 19.2-42.667 42.667 19.2 42.667 42.667 42.667zM512 640c70.827 0 128-57.173 128-128s-57.173-128-128-128-128 57.173-128 128 57.173 128 128 128zM768 128h-512v59.733c0 85.333 170.667 132.267 256 132.267s256-46.933 256-132.267v-59.733z" />
<glyph unicode="&#xe611;" d="M810.667 810.667h-178.347c-17.92 49.493-64.853 85.333-120.32 85.333s-102.4-35.84-120.32-85.333h-178.347c-46.933 0-85.333-38.4-85.333-85.333v-597.333c0-46.933 38.4-85.333 85.333-85.333h597.333c46.933 0 85.333 38.4 85.333 85.333v597.333c0 46.933-38.4 85.333-85.333 85.333zM554.667 170.667h-85.333v85.333h85.333v-85.333zM554.667 341.334h-85.333v256h85.333v-256zM512 725.334c-23.467 0-42.667 19.2-42.667 42.667s19.2 42.667 42.667 42.667 42.667-19.2 42.667-42.667-19.2-42.667-42.667-42.667z" />
<glyph unicode="&#xe612;" d="M810.667 810.667h-178.347c-17.92 49.493-64.853 85.333-120.32 85.333s-102.4-35.84-120.32-85.333h-178.347c-46.933 0-85.333-38.4-85.333-85.333v-597.333c0-46.933 38.4-85.333 85.333-85.333h597.333c46.933 0 85.333 38.4 85.333 85.333v597.333c0 46.933-38.4 85.333-85.333 85.333zM512 810.667c23.467 0 42.667-19.2 42.667-42.667s-19.2-42.667-42.667-42.667-42.667 19.2-42.667 42.667 19.2 42.667 42.667 42.667zM682.667 298.667h-170.667v-128l-213.333 213.333 213.333 213.333v-128h170.667v-170.667z" />
<glyph unicode="&#xe613;" d="M810.667 810.667h-178.347c-17.92 49.493-64.853 85.333-120.32 85.333s-102.4-35.84-120.32-85.333h-178.347c-46.933 0-85.333-38.4-85.333-85.333v-597.333c0-46.933 38.4-85.333 85.333-85.333h597.333c46.933 0 85.333 38.4 85.333 85.333v597.333c0 46.933-38.4 85.333-85.333 85.333zM512 810.667c23.467 0 42.667-19.2 42.667-42.667s-19.2-42.667-42.667-42.667-42.667 19.2-42.667 42.667 19.2 42.667 42.667 42.667zM512 170.667l-213.333 213.333h128v170.667h170.667v-170.667h128l-213.333-213.333z" />
<glyph unicode="&#xe614;" d="M810.667 810.667h-178.347c-17.92 49.493-64.853 85.333-120.32 85.333s-102.4-35.84-120.32-85.333h-178.347c-46.933 0-85.333-38.4-85.333-85.333v-597.333c0-46.933 38.4-85.333 85.333-85.333h597.333c46.933 0 85.333 38.4 85.333 85.333v597.333c0 46.933-38.4 85.333-85.333 85.333zM512 810.667c23.467 0 42.667-19.2 42.667-42.667s-19.2-42.667-42.667-42.667-42.667 19.2-42.667 42.667 19.2 42.667 42.667 42.667zM426.667 213.334l-170.667 170.667 60.16 60.16 110.507-110.080 281.173 281.173 60.16-60.587-341.333-341.333z" />
<glyph unicode="&#xe615;" d="M810.667 810.667h-178.347c-17.92 49.493-64.853 85.333-120.32 85.333s-102.4-35.84-120.32-85.333h-178.347c-46.933 0-85.333-38.4-85.333-85.333v-597.333c0-46.933 38.4-85.333 85.333-85.333h597.333c46.933 0 85.333 38.4 85.333 85.333v597.333c0 46.933-38.4 85.333-85.333 85.333zM512 810.667c23.467 0 42.667-19.2 42.667-42.667s-19.2-42.667-42.667-42.667-42.667 19.2-42.667 42.667 19.2 42.667 42.667 42.667zM597.333 213.334h-298.667v85.333h298.667v-85.333zM725.333 384h-426.667v85.333h426.667v-85.333zM725.333 554.667h-426.667v85.333h426.667v-85.333z" />
<glyph unicode="&#xe616;" d="M512 682.667v-128l170.667 170.667-170.667 170.667v-128c-188.587 0-341.333-152.747-341.333-341.333 0-66.987 19.627-129.28 52.907-181.76l62.293 62.293c-19.2 35.413-29.867 76.373-29.867 119.467 0 141.227 114.773 256 256 256zM800.427 608.427l-62.293-62.293c18.773-35.84 29.867-76.373 29.867-119.467 0-141.227-114.773-256-256-256v128l-170.667-170.667 170.667-170.667v128c188.587 0 341.333 152.747 341.333 341.333 0 66.987-19.627 129.28-52.907 181.76z" />
<glyph unicode="&#xe617;" d="M825.6 510.294c-29.013 147.2-158.293 257.707-313.6 257.707-123.307 0-230.4-69.973-283.733-172.373-128.427-13.653-228.267-122.453-228.267-254.293 0-141.227 114.773-256 256-256h554.667c117.76 0 213.333 95.573 213.333 213.333 0 112.64-87.467 203.947-198.4 211.627zM597.333 384v-170.667h-170.667v170.667h-128l213.333 213.333 213.333-213.333h-128z" />
<glyph unicode="&#xe618;" d="M768 853.334h-512c-46.933 0-85.333-38.4-85.333-85.333v-682.667c0-46.933 38.4-85.333 85.333-85.333h512c46.933 0 85.333 38.4 85.333 85.333v682.667c0 46.933-38.4 85.333-85.333 85.333zM256 768h213.333v-341.333l-106.667 64-106.667-64v341.333z" />
<glyph unicode="&#xe619;" d="M725.333 810.667h-426.667c-46.933 0-84.907-38.4-84.907-85.333l-0.427-682.667 298.667 128 298.667-128v682.667c0 46.933-38.4 85.333-85.333 85.333zM725.333 170.667l-213.333 93.013-213.333-93.013v554.667h426.667v-554.667z" />
<glyph unicode="&#xe61a;" d="M725.333 810.667h-426.667c-46.933 0-84.907-38.4-84.907-85.333l-0.427-682.667 298.667 128 298.667-128v682.667c0 46.933-38.4 85.333-85.333 85.333z" />
<glyph unicode="&#xe61b;" d="M853.333 597.334h-119.893c-19.2 33.28-45.653 61.867-77.653 83.627l69.547 69.547-60.16 60.16-92.587-92.587c-19.627 4.693-39.68 7.253-60.587 7.253s-40.96-2.56-60.16-7.253l-93.013 92.587-60.16-60.16 69.12-69.547c-31.573-21.76-58.027-50.347-77.227-83.627h-119.893v-85.333h89.173c-2.133-14.080-3.84-28.16-3.84-42.667v-42.667h-85.333v-85.333h85.333v-42.667c0-14.507 1.707-28.587 3.84-42.667h-89.173v-85.333h119.893c44.373-76.373 126.72-128 221.44-128s177.067 51.627 221.44 128h119.893v85.333h-89.173c2.133 14.080 3.84 28.16 3.84 42.667v42.667h85.333v85.333h-85.333v42.667c0 14.507-1.707 28.587-3.84 42.667h89.173v85.333zM597.333 256h-170.667v85.333h170.667v-85.333zM597.333 426.667h-170.667v85.333h170.667v-85.333z" />
<glyph unicode="&#xe61c;" d="M810.667 597.334l-170.667-170.667h128c0-141.227-114.773-256-256-256-43.093 0-84.053 10.667-119.467 29.867l-62.293-62.293c52.48-33.28 114.773-52.907 181.76-52.907 188.587 0 341.333 152.747 341.333 341.333h128l-170.667 170.667zM256 426.667c0 141.227 114.773 256 256 256 43.093 0 84.053-10.667 119.467-29.867l62.293 62.293c-52.48 33.28-114.773 52.907-181.76 52.907-188.587 0-341.333-152.747-341.333-341.333h-128l170.667-170.667 170.667 170.667h-128z" />
<glyph unicode="&#xe61d;" d="M512 853.334c-235.52 0-426.667-191.147-426.667-426.667s191.147-426.667 426.667-426.667 426.667 191.147 426.667 426.667-191.147 426.667-426.667 426.667zM426.667 213.334l-213.333 213.333 60.16 60.16 153.173-152.747 323.84 323.84 60.16-60.587-384-384z" />
<glyph unicode="&#xe61e;" d="M768 853.334h-512c-46.933 0-85.333-38.4-85.333-85.333v-682.667c0-46.933 38.4-85.333 85.333-85.333h512c46.933 0 85.333 38.4 85.333 85.333v682.667c0 46.933-38.4 85.333-85.333 85.333zM256 768h213.333v-341.333l-106.667 64-106.667-64v341.333z" />
<glyph unicode="&#xe61f;" d="M853.333 768h-682.667c-47.36 0-84.907-37.973-84.907-85.333l-0.427-512c0-47.36 37.973-85.333 85.333-85.333h682.667c47.36 0 85.333 37.973 85.333 85.333v512c0 47.36-37.973 85.333-85.333 85.333zM853.333 170.667h-682.667v256h682.667v-256zM853.333 597.334h-682.667v85.333h682.667v-85.333z" />
<glyph unicode="&#xe620;" d="M128 384h341.333v426.667h-341.333v-426.667zM128 42.667h341.333v256h-341.333v-256zM554.667 42.667h341.333v426.667h-341.333v-426.667zM554.667 810.667v-256h341.333v256h-341.333z" />
<glyph unicode="&#xe621;" d="M256 128c0-46.933 38.4-85.333 85.333-85.333h341.333c46.933 0 85.333 38.4 85.333 85.333v512h-512v-512zM810.667 768h-149.333l-42.667 42.667h-213.333l-42.667-42.667h-149.333v-85.333h597.333v85.333z" />
<glyph unicode="&#xe622;" d="M597.333 853.334h-341.333c-46.933 0-84.907-38.4-84.907-85.333l-0.427-682.667c0-46.933 37.973-85.333 84.907-85.333h512.427c46.933 0 85.333 38.4 85.333 85.333v512l-256 256zM682.667 170.667h-341.333v85.333h341.333v-85.333zM682.667 341.334h-341.333v85.333h341.333v-85.333zM554.667 554.667v234.667l234.667-234.667h-234.667z" />
<glyph unicode="&#xe623;" d="M853.333 384h-682.667c-23.467 0-42.667-19.2-42.667-42.667v-256c0-23.467 19.2-42.667 42.667-42.667h682.667c23.467 0 42.667 19.2 42.667 42.667v256c0 23.467-19.2 42.667-42.667 42.667zM298.667 128c-46.933 0-85.333 38.4-85.333 85.333s38.4 85.333 85.333 85.333 85.333-38.4 85.333-85.333-38.4-85.333-85.333-85.333zM853.333 810.667h-682.667c-23.467 0-42.667-19.2-42.667-42.667v-256c0-23.467 19.2-42.667 42.667-42.667h682.667c23.467 0 42.667 19.2 42.667 42.667v256c0 23.467-19.2 42.667-42.667 42.667zM298.667 554.667c-46.933 0-85.333 38.4-85.333 85.333s38.4 85.333 85.333 85.333 85.333-38.4 85.333-85.333-38.4-85.333-85.333-85.333z" />
<glyph unicode="&#xe624;" d="M768 640l-60.16 60.16-270.507-270.507 60.16-60.16 270.507 270.507zM948.907 700.16l-451.413-451.413-178.347 177.92-60.16-60.16 238.507-238.507 512 512-60.587 60.16zM17.493 366.507l238.507-238.507 60.16 60.16-238.080 238.507-60.587-60.16z" />
<glyph unicode="&#xe625;" d="M384 248.747l-177.92 177.92-60.587-60.16 238.507-238.507 512 512-60.16 60.16z" />
<glyph unicode="&#xe626;" d="M725.333 426.667h-213.333v-213.333h213.333v213.333zM682.667 896v-85.333h-341.333v85.333h-85.333v-85.333h-42.667c-47.36 0-84.907-38.4-84.907-85.333l-0.427-597.333c0-46.933 37.973-85.333 85.333-85.333h597.333c46.933 0 85.333 38.4 85.333 85.333v597.333c0 46.933-38.4 85.333-85.333 85.333h-42.667v85.333h-85.333zM810.667 128h-597.333v469.333h597.333v-469.333z" />
<glyph unicode="&#xe627;" d="M430.507 273.494l60.16-60.16 213.333 213.333-213.333 213.333-60.16-60.16 110.080-110.507h-412.587v-85.333h412.587l-110.080-110.507zM810.667 810.667h-597.333c-47.36 0-85.333-38.4-85.333-85.333v-170.667h85.333v170.667h597.333v-597.333h-597.333v170.667h-85.333v-170.667c0-46.933 37.973-85.333 85.333-85.333h597.333c46.933 0 85.333 38.4 85.333 85.333v597.333c0 46.933-38.4 85.333-85.333 85.333z" />
<glyph unicode="&#xe628;" d="M512 473.6c-26.027 0-46.933-20.907-46.933-46.933s20.907-46.933 46.933-46.933c26.027 0 46.933 20.907 46.933 46.933s-20.907 46.933-46.933 46.933zM512 853.334c-235.52 0-426.667-191.147-426.667-426.667s191.147-426.667 426.667-426.667 426.667 191.147 426.667 426.667-191.147 426.667-426.667 426.667zM605.44 333.227l-349.44-162.56 162.56 349.44 349.44 162.56-162.56-349.44z" />
<glyph unicode="&#xe629;" d="M874.667 469.334h-64v170.667c0 46.933-38.4 85.333-85.333 85.333h-170.667v64c0 58.88-47.787 106.667-106.667 106.667s-106.667-47.787-106.667-106.667v-64h-170.667c-46.933 0-84.907-38.4-84.907-85.333v-162.133h63.573c63.573 0 115.2-51.627 115.2-115.2s-51.627-115.2-115.2-115.2h-64v-162.133c0-46.933 38.4-85.333 85.333-85.333h162.133v64c0 63.573 51.627 115.2 115.2 115.2s115.2-51.627 115.2-115.2v-64h162.133c46.933 0 85.333 38.4 85.333 85.333v170.667h64c58.88 0 106.667 47.787 106.667 106.667s-47.787 106.667-106.667 106.667z" />
<glyph unicode="&#xe62a;" d="M626.773 209.067c-31.573-24.747-72.533-38.4-114.773-38.4s-83.2 13.653-114.773 38.4c-9.387 7.253-22.613 5.547-29.867-3.84s-5.547-22.613 3.84-29.867c38.827-30.72 89.173-47.36 140.8-47.36s101.973 16.64 141.227 46.933c9.387 7.253 11.093 20.48 3.84 29.867-7.253 9.813-20.907 11.093-30.293 4.267zM405.333 405.334c0-23.564-19.103-42.667-42.667-42.667s-42.667 19.103-42.667 42.667c0 23.564 19.103 42.667 42.667 42.667s42.667-19.103 42.667-42.667zM512 938.667c-282.88 0-512-229.12-512-512s229.12-512 512-512 512 229.12 512 512-229.12 512-512 512zM851.627 306.347c-46.507-159.573-182.187-275.627-343.040-275.627-161.28 0-296.96 116.053-343.040 276.053-50.773 4.693-90.88 50.347-90.88 107.52 0 54.187 36.267 98.56 84.053 106.667 89.173 62.293 162.133 148.907 174.507 215.467v0.427c57.6-112.213 268.8-221.44 504.747-215.893l12.8 1.28c54.613 0 98.56-48.64 98.56-108.373 0-58.88-43.52-107.093-97.707-107.52zM704 405.334c0-23.564-19.103-42.667-42.667-42.667s-42.667 19.103-42.667 42.667c0 23.564 19.103 42.667 42.667 42.667s42.667-19.103 42.667-42.667z" />
<glyph unicode="&#xe62b;" d="M704 810.667c-74.24 0-145.493-34.56-192-89.173-46.507 54.613-117.76 89.173-192 89.173-131.413 0-234.667-103.253-234.667-234.667 0-161.28 145.067-292.693 364.8-492.373l61.867-55.893 61.867 56.32c219.733 199.253 364.8 330.667 364.8 491.947 0 131.413-103.253 234.667-234.667 234.667zM516.267 147.2l-4.267-4.267-4.267 4.267c-203.093 183.893-337.067 305.493-337.067 428.8 0 85.333 64 149.333 149.333 149.333 65.707 0 129.707-42.24 152.32-100.693h79.787c22.187 58.453 86.187 100.693 151.893 100.693 85.333 0 149.333-64 149.333-149.333 0-123.307-133.973-244.907-337.067-428.8z" />
<glyph unicode="&#xe62c;" d="M512 27.734l-61.867 56.32c-219.733 199.253-364.8 330.667-364.8 491.947 0 131.413 103.253 234.667 234.667 234.667 74.24 0 145.493-34.56 192-89.173 46.507 54.613 117.76 89.173 192 89.173 131.413 0 234.667-103.253 234.667-234.667 0-161.28-145.067-292.693-364.8-492.373l-61.867-55.893z" />
<glyph unicode="&#xe62d;" d="M853.333 102.827v494.507l-256 256h-341.333c-46.933 0-84.907-38.4-84.907-85.333l-0.427-682.667c0-46.933 37.973-85.333 84.907-85.333h512.427c19.2 0 36.267 6.4 50.773 17.067l-189.013 189.013c-34.133-22.187-74.24-35.413-117.76-35.413-117.76 0-213.333 95.573-213.333 213.333s95.573 213.333 213.333 213.333 213.333-95.573 213.333-213.333c0-43.52-13.227-83.627-35.413-117.333l163.413-163.84zM384 384c0-70.827 57.173-128 128-128s128 57.173 128 128-57.173 128-128 128-128-57.173-128-128z" />
<glyph unicode="&#xe62e;" d="M469.333 682.667c58.88 0 112.213-23.893 151.040-62.293l-108.373-108.373h256v256l-87.467-87.467c-54.187 54.187-128.853 87.467-211.2 87.467-150.613 0-274.347-111.36-295.253-256h86.187c19.627 97.28 105.813 170.667 209.067 170.667zM709.973 292.694c28.16 38.4 47.787 84.053 54.613 133.973h-86.187c-19.627-97.28-105.813-170.667-209.067-170.667-58.88 0-112.213 23.893-151.040 62.293l108.373 108.373h-256v-256l87.467 87.467c54.187-54.187 128.853-87.467 211.2-87.467 66.133 0 127.147 21.76 176.64 58.027l207.36-206.933 63.573 63.573-206.933 207.36z" />
<glyph unicode="&#xe62f;" d="M384 640h-85.333v-85.333h85.333v85.333zM384 469.334h-85.333v-85.333h85.333v85.333zM384 810.667c-47.36 0-85.333-38.4-85.333-85.333h85.333v85.333zM554.667 298.667h-85.333v-85.333h85.333v85.333zM810.667 810.667v-85.333h85.333c0 46.933-38.4 85.333-85.333 85.333zM554.667 810.667h-85.333v-85.333h85.333v85.333zM384 213.334v85.333h-85.333c0-46.933 37.973-85.333 85.333-85.333zM810.667 384h85.333v85.333h-85.333v-85.333zM810.667 554.667h85.333v85.333h-85.333v-85.333zM810.667 213.334c46.933 0 85.333 38.4 85.333 85.333h-85.333v-85.333zM213.333 640h-85.333v-512c0-46.933 37.973-85.333 85.333-85.333h512v85.333h-512v512zM640 725.334h85.333v85.333h-85.333v-85.333zM640 213.334h85.333v85.333h-85.333v-85.333z" />
<glyph unicode="&#xe630;" d="M128 384h85.333v85.333h-85.333v-85.333zM128 213.334h85.333v85.333h-85.333v-85.333zM213.333 42.667v85.333h-85.333c0-46.933 37.973-85.333 85.333-85.333zM128 554.667h85.333v85.333h-85.333v-85.333zM640 42.667h85.333v85.333h-85.333v-85.333zM810.667 810.667h-426.667c-47.36 0-85.333-38.4-85.333-85.333v-426.667c0-46.933 37.973-85.333 85.333-85.333h426.667c46.933 0 85.333 38.4 85.333 85.333v426.667c0 46.933-38.4 85.333-85.333 85.333zM810.667 298.667h-426.667v426.667h426.667v-426.667zM469.333 42.667h85.333v85.333h-85.333v-85.333zM298.667 42.667h85.333v85.333h-85.333v-85.333z" />
<glyph unicode="&#xe631;" d="M810.667 554.667h-170.667v256h-256v-256h-170.667l298.667-298.667 298.667 298.667zM213.333 170.667v-85.333h597.333v85.333h-597.333z" />
<glyph unicode="&#xe632;" d="M512 201.814l263.68-159.147-69.973 299.947 232.96 201.813-306.773 26.027-119.893 282.88-119.893-282.88-306.773-26.027 232.96-201.813-69.973-299.947z" />
<glyph unicode="&#xe633;" d="M512 853.334c-235.52 0-426.667-191.147-426.667-426.667s191.147-426.667 426.667-426.667 426.667 191.147 426.667 426.667-191.147 426.667-426.667 426.667zM341.333 192c-58.88 0-106.667 47.787-106.667 106.667s47.787 106.667 106.667 106.667 106.667-47.787 106.667-106.667-47.787-106.667-106.667-106.667zM405.333 597.334c0 58.88 47.787 106.667 106.667 106.667s106.667-47.787 106.667-106.667-47.787-106.667-106.667-106.667-106.667 47.787-106.667 106.667zM682.667 192c-58.88 0-106.667 47.787-106.667 106.667s47.787 106.667 106.667 106.667 106.667-47.787 106.667-106.667-47.787-106.667-106.667-106.667z" />
<glyph unicode="&#xe634;" d="M512 853.334c-235.52 0-426.667-191.147-426.667-426.667s191.147-426.667 426.667-426.667 426.667 191.147 426.667 426.667-191.147 426.667-426.667 426.667zM554.667 128h-85.333v85.333h85.333v-85.333zM642.987 458.667l-38.4-39.253c-30.72-31.147-49.92-56.747-49.92-120.747h-85.333v21.333c0 46.933 19.2 89.6 49.92 120.747l52.907 53.76c15.787 15.36 25.173 36.693 25.173 60.16 0 46.933-38.4 85.333-85.333 85.333s-85.333-38.4-85.333-85.333h-85.333c0 94.293 76.373 170.667 170.667 170.667s170.667-76.373 170.667-170.667c0-37.547-15.36-71.68-39.68-96z" />
<glyph unicode="&#xe635;" d="M622.507 597.334l-110.507-110.507-110.507 110.507-60.16-60.16 110.507-110.507-110.507-110.507 60.16-60.16 110.507 110.507 110.507-110.507 60.16 60.16-110.507 110.507 110.507 110.507-60.16 60.16zM512 853.334c-235.947 0-426.667-190.72-426.667-426.667s190.72-426.667 426.667-426.667 426.667 190.72 426.667 426.667-190.72 426.667-426.667 426.667zM512 85.334c-188.16 0-341.333 153.173-341.333 341.333s153.173 341.333 341.333 341.333 341.333-153.173 341.333-341.333-153.173-341.333-341.333-341.333z" />
<glyph unicode="&#xe636;" d="M554.667 810.667c-212.053 0-384-171.947-384-384h-128l165.973-165.973 2.987-5.973 172.373 171.947h-128c0 165.12 133.547 298.667 298.667 298.667s298.667-133.547 298.667-298.667-133.547-298.667-298.667-298.667c-82.347 0-157.013 33.707-210.773 87.893l-60.587-60.587c69.547-69.547 165.12-112.64 271.36-112.64 212.053 0 384 171.947 384 384s-171.947 384-384 384zM512 597.334v-213.333l182.613-108.373 30.72 51.627-149.333 88.747v181.333h-64z" />
<glyph unicode="&#xe637;" d="M426.667 85.334v256h170.667v-256h213.333v341.333h128l-426.667 384-426.667-384h128v-341.333z" />
<glyph unicode="&#xe638;" d="M768 597.334h-42.667v85.333c0 117.76-95.573 213.333-213.333 213.333s-213.333-95.573-213.333-213.333v-85.333h-42.667c-46.933 0-85.333-38.4-85.333-85.333v-426.667c0-46.933 38.4-85.333 85.333-85.333h512c46.933 0 85.333 38.4 85.333 85.333v426.667c0 46.933-38.4 85.333-85.333 85.333zM512 213.334c-46.933 0-85.333 38.4-85.333 85.333s38.4 85.333 85.333 85.333 85.333-38.4 85.333-85.333-38.4-85.333-85.333-85.333zM644.267 597.334h-264.533v85.333c0 72.96 59.307 132.267 132.267 132.267s132.267-59.307 132.267-132.267v-85.333z" />
<glyph unicode="&#xe639;" d="M469.333 213.334h85.333v256h-85.333v-256zM512 853.334c-235.52 0-426.667-191.147-426.667-426.667s191.147-426.667 426.667-426.667 426.667 191.147 426.667 426.667-191.147 426.667-426.667 426.667zM512 85.334c-188.16 0-341.333 153.173-341.333 341.333s153.173 341.333 341.333 341.333 341.333-153.173 341.333-341.333-153.173-341.333-341.333-341.333zM469.333 554.667h85.333v85.333h-85.333v-85.333z" />
<glyph unicode="&#xe63a;" d="M512 853.334c-235.52 0-426.667-191.147-426.667-426.667s191.147-426.667 426.667-426.667 426.667 191.147 426.667 426.667-191.147 426.667-426.667 426.667zM554.667 213.334h-85.333v256h85.333v-256zM554.667 554.667h-85.333v85.333h85.333v-85.333z" />
<glyph unicode="&#xe63b;" d="M896 810.24h-768c-46.933 0-85.333-38.4-85.333-85.333v-170.24h85.333v171.093h768v-598.613h-768v171.52h-85.333v-171.093c0-46.933 38.4-84.48 85.333-84.48h768c46.933 0 85.333 37.547 85.333 84.48v597.333c0 47.36-38.4 85.333-85.333 85.333zM469.333 256l170.667 170.667-170.667 170.667v-128h-426.667v-85.333h426.667v-128z" />
<glyph unicode="&#xe63c;" d="M753.493 600.32l-241.493 241.493-241.493-241.493c-133.12-133.12-133.12-349.44 0-482.56 66.56-66.56 154.027-99.84 241.493-99.84s174.933 33.28 241.493 99.84c133.12 133.12 133.12 349.44 0 482.56zM512 102.827c-68.267 0-132.693 26.453-180.907 75.093-48.64 48.64-75.093 112.64-75.093 180.907s26.453 132.693 75.093 180.907l180.907 181.333v-618.24z" />
<glyph unicode="&#xe63d;" d="M752.213 689.494c-15.36 21.76-40.96 35.84-69.547 35.84l-469.333-0.427c-46.933 0-85.333-37.973-85.333-84.907v-426.667c0-46.933 38.4-84.907 85.333-84.907l469.333-0.427c28.587 0 54.187 14.080 69.547 35.84l186.453 262.827-186.453 262.827zM682.667 213.334h-469.333v426.667h469.333l151.467-213.333-151.467-213.333z" />
<glyph unicode="&#xe63e;" d="M752.213 689.494c-15.36 21.76-40.96 35.84-69.547 35.84l-469.333-0.427c-46.933 0-85.333-37.973-85.333-84.907v-426.667c0-46.933 38.4-84.907 85.333-84.907l469.333-0.427c28.587 0 54.187 14.080 69.547 35.84l186.453 262.827-186.453 262.827z" />
<glyph unicode="&#xe63f;" d="M511.573 853.334c-235.52 0-426.24-191.147-426.24-426.667s190.72-426.667 426.24-426.667c235.947 0 427.093 191.147 427.093 426.667s-191.147 426.667-427.093 426.667zM807.253 597.334h-125.867c-13.653 53.333-33.28 104.533-58.88 151.893 78.507-26.88 143.787-81.493 184.747-151.893zM512 766.294c35.413-51.2 63.147-107.947 81.493-168.96h-162.987c18.347 61.013 46.080 117.76 81.493 168.96zM181.76 341.334c-6.827 27.307-11.093 55.893-11.093 85.333s4.267 58.027 11.093 85.333h144.213c-3.413-28.16-5.973-56.32-5.973-85.333s2.56-57.173 5.973-85.333h-144.213zM216.747 256h125.867c13.653-53.333 33.28-104.533 58.88-151.893-78.507 26.88-143.787 81.067-184.747 151.893zM342.613 597.334h-125.867c40.96 70.827 106.24 125.013 184.747 151.893-25.6-47.36-45.227-98.56-58.88-151.893zM512 87.040c-35.413 51.2-63.147 107.947-81.493 168.96h162.987c-18.347-61.013-46.080-117.76-81.493-168.96zM611.84 341.334h-199.68c-3.84 28.16-6.827 56.32-6.827 85.333s2.987 57.6 6.827 85.333h199.68c3.84-27.733 6.827-56.32 6.827-85.333s-2.987-57.173-6.827-85.333zM622.507 104.107c25.6 47.36 45.227 98.56 58.88 151.893h125.867c-40.96-70.4-106.24-125.013-184.747-151.893zM698.027 341.334c3.413 28.16 5.973 56.32 5.973 85.333s-2.56 57.173-5.973 85.333h144.213c6.827-27.307 11.093-55.893 11.093-85.333s-4.267-58.027-11.093-85.333h-144.213z" />
<glyph unicode="&#xe640;" d="M810.667 128h-597.333v597.333h298.667v85.333h-298.667c-47.36 0-85.333-38.4-85.333-85.333v-597.333c0-46.933 37.973-85.333 85.333-85.333h597.333c46.933 0 85.333 38.4 85.333 85.333v298.667h-85.333v-298.667zM597.333 810.667v-85.333h153.173l-419.413-419.413 60.16-60.16 419.413 419.413v-153.173h85.333v298.667h-298.667z" />
<glyph unicode="&#xe641;" d="M128 384h85.333v85.333h-85.333v-85.333zM128 213.334h85.333v85.333h-85.333v-85.333zM128 554.667h85.333v85.333h-85.333v-85.333zM298.667 384h597.333v85.333h-597.333v-85.333zM298.667 213.334h597.333v85.333h-597.333v-85.333zM298.667 640v-85.333h597.333v85.333h-597.333z" />
<glyph unicode="&#xe642;" d="M512 213.334c46.933 0 85.333 38.4 85.333 85.333s-38.4 85.333-85.333 85.333-85.333-38.4-85.333-85.333 38.4-85.333 85.333-85.333zM768 597.334h-42.667v85.333c0 117.76-95.573 213.333-213.333 213.333s-213.333-95.573-213.333-213.333h81.067c0 72.96 59.307 132.267 132.267 132.267s132.267-59.307 132.267-132.267v-85.333h-388.267c-46.933 0-85.333-38.4-85.333-85.333v-426.667c0-46.933 38.4-85.333 85.333-85.333h512c46.933 0 85.333 38.4 85.333 85.333v426.667c0 46.933-38.4 85.333-85.333 85.333zM768 85.334h-512v426.667h512v-426.667z" />
<glyph unicode="&#xe643;" d="M768 597.334h-42.667v85.333c0 117.76-95.573 213.333-213.333 213.333s-213.333-95.573-213.333-213.333v-85.333h-42.667c-46.933 0-85.333-38.4-85.333-85.333v-426.667c0-46.933 38.4-85.333 85.333-85.333h512c46.933 0 85.333 38.4 85.333 85.333v426.667c0 46.933-38.4 85.333-85.333 85.333zM512 814.934c72.96 0 132.267-59.307 132.267-132.267v-85.333h-260.267v85.333h-4.267c0 72.96 59.307 132.267 132.267 132.267zM768 85.334h-512v426.667h512v-426.667zM512 213.334c46.933 0 85.333 38.4 85.333 85.333s-38.4 85.333-85.333 85.333-85.333-38.4-85.333-85.333 38.4-85.333 85.333-85.333z" />
<glyph unicode="&#xe644;" d="M768 597.334h-42.667v85.333c0 117.76-95.573 213.333-213.333 213.333s-213.333-95.573-213.333-213.333v-85.333h-42.667c-46.933 0-85.333-38.4-85.333-85.333v-426.667c0-46.933 38.4-85.333 85.333-85.333h512c46.933 0 85.333 38.4 85.333 85.333v426.667c0 46.933-38.4 85.333-85.333 85.333zM512 213.334c-46.933 0-85.333 38.4-85.333 85.333s38.4 85.333 85.333 85.333 85.333-38.4 85.333-85.333-38.4-85.333-85.333-85.333zM644.267 597.334h-264.533v85.333c0 72.96 59.307 132.267 132.267 132.267s132.267-59.307 132.267-132.267v-85.333z" />
<glyph unicode="&#xe645;" d="M913.493 444.587l-384 384c-15.36 15.36-36.693 24.747-60.16 24.747h-298.667c-46.933 0-85.333-38.4-85.333-85.333v-298.667c0-23.467 9.387-44.8 25.173-60.587l384-384c15.36-15.36 36.693-24.747 60.16-24.747s44.8 9.387 60.16 25.173l298.667 298.667c15.787 15.36 25.173 36.693 25.173 60.16s-9.813 45.227-25.173 60.587zM234.667 640c-35.413 0-64 28.587-64 64s28.587 64 64 64 64-28.587 64-64-28.587-64-64-64zM736.853 287.147l-182.187-182.187-182.187 182.187c-19.2 19.627-31.147 46.080-31.147 75.52 0 58.88 47.787 106.667 106.667 106.667 29.44 0 56.32-11.947 75.52-31.573l31.147-30.72 31.147 31.147c19.2 19.2 46.080 31.147 75.52 31.147 58.88 0 106.667-47.787 106.667-106.667 0-29.44-11.947-56.32-31.147-75.52z" />
<glyph unicode="&#xe646;" d="M853.333 682.667h-426.667v-256h-85.333v341.333h256v170.667h-341.333v-256h-85.333c-46.933 0-85.333-38.4-85.333-85.333v-512c0-46.933 38.4-85.333 85.333-85.333h682.667c46.933 0 85.333 38.4 85.333 85.333v512c0 46.933-38.4 85.333-85.333 85.333z" />
<glyph unicode="&#xe647;" d="M597.333 853.334h-341.333c-46.933 0-84.907-38.4-84.907-85.333l-0.427-682.667c0-46.933 37.973-85.333 84.907-85.333h512.427c46.933 0 85.333 38.4 85.333 85.333v512l-256 256zM682.667 256h-128v-128h-85.333v128h-128v85.333h128v128h85.333v-128h128v-85.333zM554.667 554.667v234.667l234.667-234.667h-234.667z" />
<glyph unicode="&#xe648;" d="M810.667 768h-597.333c-47.36 0-85.333-38.4-85.333-85.333v-512c0-46.933 37.973-85.333 85.333-85.333h170.667v85.333h-170.667v426.667h597.333v-426.667h-170.667v-85.333h170.667c46.933 0 85.333 38.4 85.333 85.333v512c0 46.933-37.973 85.333-85.333 85.333zM512 512l-170.667-170.667h128v-256h85.333v256h128l-170.667 170.667z" />
<glyph unicode="&#xe649;" d="M810.667 128h-597.333v597.333h298.667v85.333h-298.667c-47.36 0-85.333-38.4-85.333-85.333v-597.333c0-46.933 37.973-85.333 85.333-85.333h597.333c46.933 0 85.333 38.4 85.333 85.333v298.667h-85.333v-298.667zM597.333 810.667v-85.333h153.173l-419.413-419.413 60.16-60.16 419.413 419.413v-153.173h85.333v298.667h-298.667z" />
<glyph unicode="&#xe64a;" d="M426.667 554.667h170.667v128h128l-213.333 213.333-213.333-213.333h128v-128zM384 512h-128v128l-213.333-213.333 213.333-213.333v128h128v170.667zM981.333 426.667l-213.333 213.333v-128h-128v-170.667h128v-128l213.333 213.333zM597.333 298.667h-170.667v-128h-128l213.333-213.333 213.333 213.333h-128v128z" />
<glyph unicode="&#xe64b;" d="M469.333 597.334c-70.827 0-128-57.173-128-128s57.173-128 128-128 128 57.173 128 128-57.173 128-128 128zM810.667 810.667h-597.333c-46.933 0-85.333-38.4-85.333-85.333v-597.333c0-46.933 38.4-85.333 85.333-85.333h597.333c46.933 0 85.333 38.4 85.333 85.333v597.333c0 46.933-38.4 85.333-85.333 85.333zM750.507 128l-163.413 163.413c-34.133-22.187-74.24-35.413-117.76-35.413-117.76 0-213.333 95.573-213.333 213.333s95.573 213.333 213.333 213.333 213.333-95.573 213.333-213.333c0-43.52-13.227-83.627-35.413-117.333l163.413-163.84-60.16-60.16z" />
<glyph unicode="&#xe64c;" d="M853.333 768h-682.667c-47.36 0-84.907-37.973-84.907-85.333l-0.427-512c0-47.36 37.973-85.333 85.333-85.333h682.667c47.36 0 85.333 37.973 85.333 85.333v512c0 47.36-37.973 85.333-85.333 85.333zM853.333 170.667h-682.667v256h682.667v-256zM853.333 597.334h-682.667v85.333h682.667v-85.333z" />
<glyph unicode="&#xe64d;" d="M853.333 725.334h-135.253l-78.080 85.333h-256l-78.080-85.333h-135.253c-46.933 0-85.333-38.4-85.333-85.333v-512c0-46.933 38.4-85.333 85.333-85.333h298.667v89.173c-120.747 20.48-213.333 125.44-213.333 252.16h85.333c0-94.293 76.373-170.667 170.667-170.667s170.667 76.373 170.667 170.667h85.333c0-126.72-92.587-231.68-213.333-252.16v-89.173h298.667c46.933 0 85.333 38.4 85.333 85.333v512c0 46.933-38.4 85.333-85.333 85.333zM597.333 384c0-46.933-38.4-85.333-85.333-85.333s-85.333 38.4-85.333 85.333v170.667c0 46.933 38.4 85.333 85.333 85.333s85.333-38.4 85.333-85.333v-170.667z" />
<glyph unicode="&#xe64e;" d="M810.667 810.667h-42.667v85.333h-85.333v-85.333h-341.333v85.333h-85.333v-85.333h-42.667c-47.36 0-85.333-38.4-85.333-85.333v-597.333c0-46.933 37.973-85.333 85.333-85.333h597.333c46.933 0 85.333 38.4 85.333 85.333v597.333c0 46.933-38.4 85.333-85.333 85.333zM512 682.667c70.827 0 128-57.173 128-128s-57.173-128-128-128-128 57.173-128 128 57.173 128 128 128zM768 170.667h-512v42.667c0 85.333 170.667 132.267 256 132.267s256-46.933 256-132.267v-42.667z" />
<glyph unicode="&#xe64f;" d="M810.24 448c14.507 0 28.587-1.28 42.667-2.987l0.427 493.653-853.333-853.333h493.227c-1.707 14.080-2.987 28.16-2.987 42.667 0 176.64 143.36 320 320 320zM968.533 107.094c0.853 6.827 1.707 13.653 1.707 20.907s-0.427 14.080-1.707 20.907l45.227 35.413c3.84 3.413 5.12 8.96 2.56 13.653l-42.667 73.813c-2.56 4.693-8.107 6.4-13.227 4.693l-52.907-21.333c-11.093 8.533-23.040 15.787-36.267 20.907l-8.107 56.32c-0.427 5.12-5.12 8.96-10.24 8.96h-85.333c-5.12 0-9.813-3.84-10.667-8.96l-8.107-56.32c-12.8-5.547-25.173-12.373-36.267-20.907l-52.907 21.333c-4.693 1.707-10.24 0-13.227-4.693l-42.667-73.813c-2.56-4.693-1.707-10.24 2.56-13.653l45.227-35.413c-0.853-6.827-1.28-13.653-1.28-20.907s0.427-14.080 1.28-20.907l-45.227-35.413c-3.84-3.413-5.12-8.96-2.56-13.653l42.667-73.813c2.56-4.693 8.107-6.4 13.227-4.693l52.907 21.333c11.093-8.533 23.040-15.787 36.267-20.907l8.107-56.32c0.853-5.12 5.12-8.96 10.667-8.96h85.333c5.12 0 9.813 3.84 10.667 8.96l8.107 56.32c12.8 5.547 25.173 12.373 35.84 20.907l53.333-21.333c4.693-1.707 10.24 0 13.227 4.693l42.667 73.813c2.56 4.693 1.28 10.24-2.56 13.653l-45.653 35.413zM810.24 64c-35.413 0-64 28.587-64 64s28.587 64 64 64 64-28.587 64-64-28.587-64-64-64z" />
<glyph unicode="&#xe650;" d="M554.667 640h-85.333v-85.333h85.333v85.333zM554.667 469.334h-85.333v-256h85.333v256zM725.333 895.574l-426.667 0.427c-46.933 0-85.333-38.4-85.333-85.333v-768c0-46.933 38.4-85.333 85.333-85.333h426.667c46.933 0 85.333 38.4 85.333 85.333v768c0 46.933-38.4 84.907-85.333 84.907zM725.333 128h-426.667v597.333h426.667v-597.333z" />
<glyph unicode="&#xe651;" d="M512 686.934c49.493 0 89.6-40.107 89.6-89.6s-40.107-89.6-89.6-89.6-89.6 40.107-89.6 89.6 40.107 89.6 89.6 89.6zM512 302.934c126.72 0 260.267-62.293 260.267-89.6v-46.933h-520.533v46.933c0 27.307 133.547 89.6 260.267 89.6zM512 768c-94.293 0-170.667-76.373-170.667-170.667s76.373-170.667 170.667-170.667 170.667 76.373 170.667 170.667-76.373 170.667-170.667 170.667zM512 384c-113.92 0-341.333-57.173-341.333-170.667v-128h682.667v128c0 113.493-227.413 170.667-341.333 170.667z" />
<glyph unicode="&#xe652;" d="M85.333 682.667h-85.333v-213.333h0.427l-0.427-384c0-46.933 38.4-85.333 85.333-85.333h768v85.333h-768v597.333zM938.667 768h-341.333l-85.333 85.333h-256c-46.933 0-84.907-38.4-84.907-85.333l-0.427-512c0-46.933 38.4-85.333 85.333-85.333h682.667c46.933 0 85.333 38.4 85.333 85.333v426.667c0 46.933-38.4 85.333-85.333 85.333zM298.667 298.667l192 256 149.333-192.427 106.667 128.427 149.333-192h-597.333z" />
<glyph unicode="&#xe653;" d="M853.333 277.334c-53.333 0-104.533 8.533-152.32 24.32-14.933 4.693-31.573 1.28-43.52-10.24l-93.867-93.867c-120.747 61.44-219.733 160-281.173 280.747l93.867 94.293c11.947 11.52 15.36 28.16 10.667 43.093-15.787 47.787-24.32 98.987-24.32 152.32 0 23.467-19.2 42.667-42.667 42.667h-149.333c-23.467 0-42.667-19.2-42.667-42.667 0-400.64 324.693-725.333 725.333-725.333 23.467 0 42.667 19.2 42.667 42.667v149.333c0 23.467-19.2 42.667-42.667 42.667zM512 810.667v-426.667l128 128h256v298.667h-384z" />
<glyph unicode="&#xe654;" d="M512 810.667c-215.467 0-377.6-78.933-512-180.48l512-630.187 512 629.333c-134.4 101.547-296.533 181.333-512 181.333zM554.667 256h-85.333v256h85.333v-256zM469.333 597.334v85.333h85.333v-85.333h-85.333z" />
<glyph unicode="&#xe655;" d="M810.667 640h-341.333v-256h341.333v256zM896 810.667h-768c-46.933 0-85.333-38.4-85.333-85.333v-597.333c0-46.933 38.4-84.48 85.333-84.48h768c46.933 0 85.333 37.547 85.333 84.48v597.333c0 46.933-38.4 85.333-85.333 85.333zM896 127.574h-768v598.613h768v-598.613z" />
<glyph unicode="&#xe656;" d="M810.667 768h-170.667l-336.64-538.88-111.36 197.547 192 341.333h-170.667l-192-341.333 192-341.333h170.667l336.64 538.88 111.36-197.547-192-341.333h170.667l192 341.333z" />
<glyph unicode="&#xe657;" d="M810.667 597.334h-597.333c-70.827 0-128-57.173-128-128v-256h170.667v-170.667h512v170.667h170.667v256c0 70.827-57.173 128-128 128zM682.667 128h-341.333v213.333h341.333v-213.333zM810.667 426.667c-23.467 0-42.667 19.2-42.667 42.667s19.2 42.667 42.667 42.667 42.667-19.2 42.667-42.667-19.2-42.667-42.667-42.667zM768 810.667h-512v-170.667h512v170.667z" />
<glyph unicode="&#xe658;" d="M511.573 853.334c-235.52 0-426.24-191.147-426.24-426.667s190.72-426.667 426.24-426.667c235.947 0 427.093 191.147 427.093 426.667s-191.147 426.667-427.093 426.667zM512 85.334c-188.587 0-341.333 152.747-341.333 341.333s152.747 341.333 341.333 341.333 341.333-152.747 341.333-341.333-152.747-341.333-341.333-341.333zM533.333 640h-64v-256l224-134.4 32 52.48-192 113.92z" />
<glyph unicode="&#xe659;" d="M896 682.667h-85.333v-384h-554.667v-85.333c0-23.467 19.2-42.667 42.667-42.667h469.333l170.667-170.667v640c0 23.467-19.2 42.667-42.667 42.667zM725.333 426.667v384c0 23.467-19.2 42.667-42.667 42.667h-554.667c-23.467 0-42.667-19.2-42.667-42.667v-597.333l170.667 170.667h426.667c23.467 0 42.667 19.2 42.667 42.667z" />
<glyph unicode="&#xe65a;" d="M768 213.334h-512v85.333h512v-85.333zM768 384h-512v85.333h512v-85.333zM768 554.667h-512v85.333h512v-85.333zM128-0l64 64 64-64 64 64 64-64 64 64 64-64 64 64 64-64 64 64 64-64 64 64 64-64v853.333l-64-64-64 64-64-64-64 64-64-64-64 64-64-64-64 64-64-64-64 64-64-64-64 64v-853.333z" />
<glyph unicode="&#xe65b;" d="M853.333 682.667h-93.013c4.693 13.227 7.68 27.733 7.68 42.667 0 70.827-57.173 128-128 128-44.8 0-83.627-23.040-106.667-57.6l-21.333-28.587-21.333 29.013c-23.040 34.133-61.867 57.173-106.667 57.173-70.827 0-128-57.173-128-128 0-14.933 2.987-29.44 7.68-42.667h-93.013c-47.36 0-84.907-37.973-84.907-85.333l-0.427-469.333c0-47.36 37.973-85.333 85.333-85.333h682.667c47.36 0 85.333 37.973 85.333 85.333v469.333c0 47.36-37.973 85.333-85.333 85.333zM640 768c23.467 0 42.667-19.2 42.667-42.667s-19.2-42.667-42.667-42.667-42.667 19.2-42.667 42.667 19.2 42.667 42.667 42.667zM384 768c23.467 0 42.667-19.2 42.667-42.667s-19.2-42.667-42.667-42.667-42.667 19.2-42.667 42.667 19.2 42.667 42.667 42.667zM853.333 128h-682.667v85.333h682.667v-85.333zM853.333 341.334h-682.667v256h216.747l-88.747-120.747 69.12-49.92 144.213 196.267 144.213-196.267 69.12 49.92-88.747 120.747h216.747v-256z" />
<glyph unicode="&#xe65c;" d="M128 298.667h768v85.333h-768v-85.333zM128 128h768v85.333h-768v-85.333zM128 469.334h768v85.333h-768v-85.333zM128 725.334v-85.333h768v85.333h-768z" />
<glyph unicode="&#xe65d;" d="M42.667 42.667h938.667l-469.333 810.667-469.333-810.667zM554.667 170.667h-85.333v85.333h85.333v-85.333zM554.667 341.334h-85.333v170.667h85.333v-170.667z" />
<glyph unicode="&#xe65e;" d="M554.667 810.667c-212.053 0-384-171.947-384-384h-128l165.973-165.973 2.987-5.973 172.373 171.947h-128c0 165.12 133.547 298.667 298.667 298.667s298.667-133.547 298.667-298.667-133.547-298.667-298.667-298.667c-82.347 0-157.013 33.707-210.773 87.893l-60.587-60.587c69.547-69.547 165.12-112.64 271.36-112.64 212.053 0 384 171.947 384 384s-171.947 384-384 384zM512 597.334v-213.333l182.613-108.373 30.72 51.627-149.333 88.747v181.333h-64z" />
<glyph unicode="&#xe65f;" d="M512 853.334c-165.12 0-298.667-133.547-298.667-298.667 0-224 298.667-554.667 298.667-554.667s298.667 330.667 298.667 554.667c0 165.12-133.547 298.667-298.667 298.667zM512 448c-58.88 0-106.667 47.787-106.667 106.667s47.787 106.667 106.667 106.667 106.667-47.787 106.667-106.667-47.787-106.667-106.667-106.667z" />
<glyph unicode="&#xe660;" d="M511.573 853.334c-235.52 0-426.24-191.147-426.24-426.667s190.72-426.667 426.24-426.667c235.947 0 427.093 191.147 427.093 426.667s-191.147 426.667-427.093 426.667zM512 85.334c-188.587 0-341.333 152.747-341.333 341.333s152.747 341.333 341.333 341.333 341.333-152.747 341.333-341.333-152.747-341.333-341.333-341.333zM533.333 640h-64v-256l224-134.4 32 52.48-192 113.92z" />
<glyph unicode="&#xe661;" d="M661.333 341.334h-33.707l-11.947 11.52c41.813 48.64 66.987 111.787 66.987 180.48 0 153.173-124.16 277.333-277.333 277.333s-277.333-124.16-277.333-277.333 124.16-277.333 277.333-277.333c68.693 0 131.84 25.173 180.48 66.987l11.52-11.947v-33.707l213.333-212.907 63.573 63.573-212.907 213.333zM405.333 341.334c-106.24 0-192 85.76-192 192s85.76 192 192 192 192-85.76 192-192-85.76-192-192-192z" />
<glyph unicode="&#xe662;" d="M512 512c-46.933 0-85.333-38.4-85.333-85.333s38.4-85.333 85.333-85.333 85.333 38.4 85.333 85.333-38.4 85.333-85.333 85.333zM810.667 810.667h-597.333c-47.36 0-85.333-38.4-85.333-85.333v-597.333c0-46.933 37.973-85.333 85.333-85.333h597.333c47.36 0 85.333 38.4 85.333 85.333v597.333c0 46.933-37.973 85.333-85.333 85.333zM736 426.667c0-9.813-0.853-19.627-2.133-29.013l63.147-49.493c5.547-4.693 7.253-12.8 3.413-19.2l-59.733-103.253c-3.84-6.4-11.52-8.96-18.347-6.4l-74.24 29.867c-15.36-11.947-32.427-21.76-50.347-29.44l-11.093-78.933c-1.28-7.253-7.68-12.8-14.933-12.8h-119.467c-7.253 0-13.653 5.547-14.933 12.373l-11.093 78.933c-18.347 7.68-34.987 17.493-50.347 29.44l-74.24-29.867c-6.827-2.56-14.507 0-18.347 6.4l-59.733 103.253c-3.84 6.4-2.133 14.507 3.413 19.2l63.147 49.493c-1.28 9.813-2.133 19.627-2.133 29.44s0.853 19.627 2.133 29.013l-63.147 49.493c-5.547 4.693-7.253 12.8-3.413 19.2l59.733 103.253c3.84 6.4 11.52 8.96 18.347 6.4l74.24-29.867c15.36 11.947 32.427 21.76 50.347 29.44l11.093 78.933c1.28 7.253 7.68 12.8 14.933 12.8h119.467c7.253 0 13.653-5.547 14.933-12.373l11.093-78.933c18.347-7.68 34.987-17.493 50.347-29.44l74.24 29.867c6.827 2.56 14.507 0 18.347-6.4l59.733-103.253c3.84-6.4 2.133-14.507-3.413-19.2l-63.147-49.493c1.28-9.813 2.133-19.627 2.133-29.44z" />
<glyph unicode="&#xe663;" d="M597.333 426.667c0 46.933-38.4 85.333-85.333 85.333s-85.333-38.4-85.333-85.333 38.4-85.333 85.333-85.333 85.333 38.4 85.333 85.333zM512 810.667c-212.053 0-384-171.947-384-384h-128l170.667-170.667 170.667 170.667h-128c0 165.12 133.547 298.667 298.667 298.667s298.667-133.547 298.667-298.667-133.547-298.667-298.667-298.667c-64.427 0-124.16 20.907-173.227 55.467l-60.587-61.44c64.853-49.493 145.92-79.36 233.813-79.36 212.053 0 384 171.947 384 384s-171.947 384-384 384z" />
<glyph unicode="&#xe664;" d="M469.333-85.333h85.333v85.333h-85.333v-85.333zM298.667-85.333h85.333v85.333h-85.333v-85.333zM640-85.333h85.333v85.333h-85.333v-85.333zM755.627 695.040l-243.627 243.627h-42.667v-323.84l-195.84 195.84-60.16-60.16 238.507-238.507-238.507-238.507 60.16-60.16 195.84 195.84v-323.84h42.667l243.627 243.627-183.467 183.040 183.467 183.040zM554.667 775.254l80.213-80.213-80.213-80.213v160.427zM634.88 328.96l-80.213-80.213v160.427l80.213-80.213z" />
<glyph unicode="&#xe665;" d="M298.667-85.333h85.333v85.333h-85.333v-85.333zM469.333-85.333h85.333v85.333h-85.333v-85.333zM640-85.333h85.333v85.333h-85.333v-85.333zM682.667 938.24l-341.333 0.427c-46.933 0-85.333-38.4-85.333-85.333v-682.667c0-46.933 38.4-85.333 85.333-85.333h341.333c46.933 0 85.333 38.4 85.333 85.333v682.667c0 46.933-38.4 84.907-85.333 84.907zM682.667 256h-341.333v512h341.333v-512z" />
<glyph unicode="&#xe666;" d="M896 810.667h-768c-46.933 0-85.333-38.4-85.333-85.333v-597.333c0-46.933 38.4-85.333 85.333-85.333h768c46.933 0 85.333 38.4 85.333 85.333v597.333c0 46.933-38.4 85.333-85.333 85.333zM896 127.574h-768v598.187h768v-598.187zM341.333 256h106.667l64-64 64 64h106.667v106.667l64 64-64 64v106.667h-106.667l-64 64-64-64h-106.667v-106.667l-64-64 64-64v-106.667zM512 554.667c70.827 0 128-57.173 128-128s-57.173-128-128-128v256z" />
<glyph unicode="&#xe667;" d="M331.52 650.24l-65.707 54.613-230.827-278.187 230.827-278.187 65.707 54.613-185.6 223.573 185.6 223.573zM298.667 384h85.333v85.333h-85.333v-85.333zM725.333 469.334h-85.333v-85.333h85.333v85.333zM469.333 384h85.333v85.333h-85.333v-85.333zM758.187 704.854l-65.707-54.613 185.6-223.573-185.6-223.573 65.707-54.613 230.827 278.187-230.827 278.187z" />
<glyph unicode="&#xe668;" d="M512 725.334c-165.12 0-298.667-133.547-298.667-298.667h85.333c0 117.76 95.573 213.333 213.333 213.333s213.333-95.573 213.333-213.333h85.333c0 165.12-133.547 298.667-298.667 298.667zM554.667 328.96c37.547 16.64 64 53.76 64 97.707 0 58.88-47.787 106.667-106.667 106.667s-106.667-47.787-106.667-106.667c0-43.52 26.453-81.067 64-97.707v-140.8l-145.493-145.493 60.16-60.16 128 128 128-128 60.16 60.16-145.493 145.493v140.8zM512 896c-258.987 0-469.333-210.347-469.333-469.333h85.333c0 212.053 171.947 384 384 384s384-171.947 384-384h85.333c0 258.987-210.347 469.333-469.333 469.333z" />
<glyph unicode="&#xe669;" d="M213.333 853.334c0 23.467-19.2 42.667-42.667 42.667s-42.667-19.2-42.667-42.667v-170.667h-85.333v-256h256v256h-85.333v170.667zM384 256c0-55.467 35.84-102.4 85.333-120.32v-178.347h85.333v178.347c49.493 17.493 85.333 64.427 85.333 120.32v85.333h-256v-85.333zM42.667 256c0-55.467 35.84-102.4 85.333-120.32v-178.347h85.333v178.347c49.493 17.92 85.333 64.853 85.333 120.32v85.333h-256v-85.333zM896 682.667v170.667c0 23.467-19.2 42.667-42.667 42.667s-42.667-19.2-42.667-42.667v-170.667h-85.333v-256h256v256h-85.333zM554.667 853.334c0 23.467-19.2 42.667-42.667 42.667s-42.667-19.2-42.667-42.667v-170.667h-85.333v-256h256v256h-85.333v170.667zM725.333 256c0-55.467 35.84-102.4 85.333-120.32v-178.347h85.333v178.347c49.493 17.493 85.333 64.427 85.333 120.32v85.333h-256v-85.333z" />
<glyph unicode="&#xe66a;" d="M213.333 853.334c0 23.467-19.2 42.667-42.667 42.667s-42.667-19.2-42.667-42.667v-170.667h-85.333v-256h256v256h-85.333v170.667zM384 256c0-55.467 35.84-102.4 85.333-120.32v-178.347h85.333v178.347c49.493 17.493 85.333 64.427 85.333 120.32v85.333h-256v-85.333zM42.667 256c0-55.467 35.84-102.4 85.333-120.32v-178.347h85.333v178.347c49.493 17.92 85.333 64.853 85.333 120.32v85.333h-256v-85.333zM896 682.667v170.667c0 23.467-19.2 42.667-42.667 42.667s-42.667-19.2-42.667-42.667v-170.667h-85.333v-256h256v256h-85.333zM554.667 853.334c0 23.467-19.2 42.667-42.667 42.667s-42.667-19.2-42.667-42.667v-170.667h-85.333v-256h256v256h-85.333v170.667zM725.333 256c0-55.467 35.84-102.4 85.333-120.32v-178.347h85.333v178.347c49.493 17.493 85.333 64.427 85.333 120.32v85.333h-256v-85.333z" />
<glyph unicode="&#xe66b;" d="M768 640v128c0 46.933-38.4 85.333-85.333 85.333h-341.333c-46.933 0-85.333-38.4-85.333-85.333v-128h-42.667v-256l128-256v-128h341.333v128l128 256v256h-42.667zM341.333 768h341.333v-128h-85.333v85.333h-42.667v-85.333h-85.333v85.333h-42.667v-85.333h-85.333v128z" />
<glyph unicode="&#xe66c;" d="M341.333 448c0 35.413-28.587 64-64 64s-64-28.587-64-64 28.587-64 64-64 64 28.587 64 64zM640 661.334c0 35.413-28.587 64-64 64h-128c-35.413 0-64-28.587-64-64s28.587-64 64-64h128c35.413 0 64 28.587 64 64zM362.667 298.667c-35.413 0-64-28.587-64-64s28.587-64 64-64 64 28.587 64 64-28.587 64-64 64zM512 896c-258.987 0-469.333-210.347-469.333-469.333s210.347-469.333 469.333-469.333 469.333 210.347 469.333 469.333-210.347 469.333-469.333 469.333zM512 42.667c-211.627 0-384 172.373-384 384s172.373 384 384 384 384-172.373 384-384-172.373-384-384-384zM746.667 512c-35.413 0-64-28.587-64-64s28.587-64 64-64 64 28.587 64 64-28.587 64-64 64zM661.333 298.667c-35.413 0-64-28.587-64-64s28.587-64 64-64 64 28.587 64 64-28.587 64-64 64z" />
<glyph unicode="&#xe66d;" d="M512.427 704l-85.76-106.667h170.667l-84.907 106.667zM768 512v-170.667l106.667 84.907-106.667 85.76zM256 512l-106.667-85.76 106.667-84.907v170.667zM597.333 256h-170.667l85.76-106.667 84.907 106.667zM896 810.667h-768c-46.933 0-85.333-38.4-85.333-85.333v-597.333c0-46.933 38.4-85.333 85.333-85.333h768c46.933 0 85.333 38.4 85.333 85.333v597.333c0 46.933-38.4 85.333-85.333 85.333zM896 127.574h-768v598.187h768v-598.187z" />
<glyph unicode="&#xe66e;" d="M554.667 554.667h-85.333v-85.333h85.333v85.333zM725.333 554.667h-85.333v-85.333h85.333v85.333zM853.333 277.334c-53.333 0-104.533 8.533-152.32 24.32-14.933 4.693-31.573 1.28-43.52-10.24l-93.867-93.867c-120.747 61.44-219.733 160-281.173 280.747l93.867 94.293c11.947 11.52 15.36 28.16 10.667 43.093-15.787 47.787-24.32 98.987-24.32 152.32 0 23.467-19.2 42.667-42.667 42.667h-149.333c-23.467 0-42.667-19.2-42.667-42.667 0-400.64 324.693-725.333 725.333-725.333 23.467 0 42.667 19.2 42.667 42.667v149.333c0 23.467-19.2 42.667-42.667 42.667zM810.667 554.667v-85.333h85.333v85.333h-85.333z" />
<glyph unicode="&#xe66f;" d="M298.667-85.333h85.333v85.333h-85.333v-85.333zM469.333-85.333h85.333v85.333h-85.333v-85.333zM554.667 853.334h-85.333v-426.667h85.333v426.667zM706.56 749.227l-61.867-61.867c73.813-44.8 123.307-125.44 123.307-218.027 0-141.227-114.773-256-256-256s-256 114.773-256 256c0 92.587 49.493 173.227 122.88 218.453l-61.44 61.44c-88.747-61.44-146.773-163.84-146.773-279.893 0-188.587 152.747-341.333 341.333-341.333s341.333 152.747 341.333 341.333c0 116.053-58.027 218.453-146.773 279.893zM640-85.333h85.333v85.333h-85.333v-85.333z" />
<glyph unicode="&#xe670;" d="M640 554.667h-256c-23.467 0-42.667-19.2-42.667-42.667v-512c0-23.467 19.2-42.667 42.667-42.667h256c23.467 0 42.667 19.2 42.667 42.667v512c0 23.467-19.2 42.667-42.667 42.667zM512 298.667c-46.933 0-85.333 38.4-85.333 85.333s38.4 85.333 85.333 85.333 85.333-38.4 85.333-85.333-38.4-85.333-85.333-85.333zM300.8 680.534l60.16-60.16c38.827 38.4 92.16 62.293 151.040 62.293s112.213-23.893 151.040-62.293l60.16 60.16c-54.187 54.187-128.853 87.467-211.2 87.467s-157.013-33.28-211.2-87.467zM512 938.667c-129.707 0-247.040-52.48-331.947-137.387l60.16-60.16c69.547 69.12 165.547 112.213 271.787 112.213s202.24-43.093 271.36-112.64l60.16 60.16c-84.48 85.333-201.813 137.813-331.52 137.813z" />
<glyph unicode="&#xe671;" d="M298.667-85.333h85.333v85.333h-85.333v-85.333zM512 384c70.827 0 127.573 57.173 127.573 128l0.427 256c0 70.827-57.173 128-128 128s-128-57.173-128-128v-256c0-70.827 57.173-128 128-128zM469.333-85.333h85.333v85.333h-85.333v-85.333zM640-85.333h85.333v85.333h-85.333v-85.333zM810.667 512h-72.533c0-128-108.373-217.6-226.133-217.6s-226.133 89.6-226.133 217.6h-72.533c0-145.493 116.053-265.813 256-286.72v-139.947h85.333v139.947c139.947 20.907 256 141.227 256 286.72z" />
<glyph unicode="&#xe672;" d="M829.013 384.854c1.707 13.653 2.987 27.307 2.987 41.813s-1.28 28.16-2.987 41.813l90.027 70.4c8.107 6.4 10.24 17.92 5.12 27.307l-85.333 147.627c-5.12 9.387-16.64 12.8-26.027 9.387l-106.24-42.667c-22.187 17.067-46.080 31.147-72.107 41.813l-16.213 113.067c-1.28 10.24-10.24 17.92-20.907 17.92h-170.667c-10.667 0-19.627-7.68-20.907-17.92l-16.213-113.067c-26.027-10.667-49.92-25.173-72.107-41.813l-106.24 42.667c-9.813 3.84-20.907 0-26.027-9.387l-85.333-147.627c-5.547-9.387-2.987-20.907 5.12-27.307l90.027-70.4c-1.707-13.653-2.987-27.733-2.987-41.813s1.28-28.16 2.987-41.813l-90.027-70.4c-8.107-6.4-10.24-17.92-5.12-27.307l85.333-147.627c5.12-9.387 16.64-12.8 26.027-9.387l106.24 42.667c22.187-17.067 46.080-31.147 72.107-41.813l16.213-113.067c1.28-10.24 10.24-17.92 20.907-17.92h170.667c10.667 0 19.627 7.68 20.907 17.92l16.213 113.067c26.027 10.667 49.92 25.173 72.107 41.813l106.24-42.667c9.813-3.84 20.907 0 26.027 9.387l85.333 147.627c5.12 9.387 2.987 20.907-5.12 27.307l-90.027 70.4zM512 277.334c-82.347 0-149.333 66.987-149.333 149.333s66.987 149.333 149.333 149.333 149.333-66.987 149.333-149.333-66.987-149.333-149.333-149.333z" />
<glyph unicode="&#xe673;" d="M128 554.667h-85.333v-469.333c0-47.36 37.973-85.333 85.333-85.333h597.333c47.36 0 85.333 37.973 85.333 85.333h-682.667v469.333zM768 725.334v85.333c0 47.36-37.973 85.333-85.333 85.333h-170.667c-47.36 0-85.333-37.973-85.333-85.333v-85.333h-213.333v-469.333c0-47.36 37.973-85.333 85.333-85.333h597.333c47.36 0 85.333 37.973 85.333 85.333v469.333h-213.333zM512 810.667h170.667v-85.333h-170.667v85.333zM512 298.667v298.667l234.667-128-234.667-170.667z" />
<glyph unicode="&#xe674;" d="M682.667 682.667v85.333c0 47.36-37.973 85.333-85.333 85.333h-170.667c-47.36 0-85.333-37.973-85.333-85.333v-85.333h-256v-554.667c0-47.36 37.973-85.333 85.333-85.333h682.667c47.36 0 85.333 37.973 85.333 85.333v554.667h-256zM426.667 768h170.667v-85.333h-170.667v85.333zM384 170.667v384l320-170.667-320-213.333z" />
<glyph unicode="&#xe675;" d="M734.293 554.667l-186.88 279.893c-8.107 11.947-21.76 17.92-35.413 17.92s-27.307-5.973-35.413-18.347l-186.88-279.467h-204.373c-23.467 0-42.667-19.2-42.667-42.667 0-3.84 0.427-7.68 1.707-11.52l108.373-395.52c9.813-35.84 42.667-62.293 81.92-62.293h554.667c39.253 0 72.107 26.453 82.347 62.293l108.373 395.52 1.28 11.52c0 23.467-19.2 42.667-42.667 42.667h-204.373zM384 554.667l128 187.733 128-187.733h-256zM512 213.334c-46.933 0-85.333 38.4-85.333 85.333s38.4 85.333 85.333 85.333 85.333-38.4 85.333-85.333-38.4-85.333-85.333-85.333z" />
<glyph unicode="&#xe676;" d="M298.667 170.667c-46.933 0-84.907-38.4-84.907-85.333s37.973-85.333 84.907-85.333 85.333 38.4 85.333 85.333-38.4 85.333-85.333 85.333zM42.667 853.334v-85.333h85.333l153.6-323.84-57.6-104.533c-6.827-11.947-10.667-26.027-10.667-40.96 0-46.933 38.4-85.333 85.333-85.333h512v85.333h-494.080c-5.973 0-10.667 4.693-10.667 10.667l1.28 5.12 38.4 69.547h317.867c32 0 60.16 17.493 74.667 43.947l152.747 276.907c3.413 5.973 5.12 13.227 5.12 20.48 0 23.467-19.2 42.667-42.667 42.667h-631.040l-40.107 85.333h-139.52zM725.333 170.667c-46.933 0-84.907-38.4-84.907-85.333s37.973-85.333 84.907-85.333 85.333 38.4 85.333 85.333-38.4 85.333-85.333 85.333z" />
<glyph unicode="&#xe677;" d="M853.333 853.334h-682.667c-46.933 0-84.907-38.4-84.907-85.333l-0.427-768 170.667 170.667h597.333c46.933 0 85.333 38.4 85.333 85.333v512c0 46.933-38.4 85.333-85.333 85.333zM341.333 341.334h-85.333v85.333h85.333v-85.333zM341.333 469.334h-85.333v85.333h85.333v-85.333zM341.333 597.334h-85.333v85.333h85.333v-85.333zM640 341.334h-213.333v85.333h213.333v-85.333zM768 469.334h-341.333v85.333h341.333v-85.333zM768 597.334h-341.333v85.333h341.333v-85.333z" />
<glyph unicode="&#xe678;" d="M531.2 256h89.173l-218.027 554.667h-79.36l-218.027-554.667h89.173l47.787 128h240.64l48.64-128zM274.347 469.334l88.32 235.52 88.32-235.52h-176.64zM921.173 444.16l-345.173-345.173-156.587 157.013-60.16-60.16 217.173-217.173 404.907 405.333-60.16 60.16z" />
<glyph unicode="&#xe679;" d="M512 328.534l158.293-115.2-60.587 186.027 158.293 112.64h-194.133l-61.867 192-61.867-192h-194.133l158.293-112.64-60.587-186.027z" />
<glyph unicode="&#xe67a;" d="M511.573 853.334c-235.52 0-426.24-191.147-426.24-426.667s190.72-426.667 426.24-426.667c235.947 0 427.093 191.147 427.093 426.667s-191.147 426.667-427.093 426.667zM692.48 170.667l-180.48 108.8-180.48-108.8 47.787 205.227-159.147 137.813 209.92 17.92 81.92 193.707 81.92-193.28 209.92-17.92-159.147-137.813 47.787-205.653z" />
<glyph unicode="&#xe67b;" d="M853.333 768h-682.667v-85.333h682.667v85.333zM896 341.334v85.333l-42.667 213.333h-682.667l-42.667-213.333v-85.333h42.667v-256h426.667v256h170.667v-256h85.333v256h42.667zM512 170.667h-256v170.667h256v-170.667z" />
<glyph unicode="&#xe67c;" d="M597.333 213.334h-426.667v-85.333h426.667v85.333zM853.333 554.667h-682.667v-85.333h682.667v85.333zM170.667 298.667h682.667v85.333h-682.667v-85.333zM170.667 725.334v-85.333h682.667v85.333h-682.667z" />
<glyph unicode="&#xe67d;" d="M704 426.667c58.88 0 106.24 47.787 106.24 106.667s-47.36 106.667-106.24 106.667c-58.88 0-106.667-47.787-106.667-106.667s47.787-106.667 106.667-106.667zM384 469.334c70.827 0 127.573 57.173 127.573 128s-56.747 128-127.573 128c-70.827 0-128-57.173-128-128s57.173-128 128-128zM704 341.334c-78.080 0-234.667-39.253-234.667-117.333v-96h469.333v96c0 78.080-156.587 117.333-234.667 117.333zM384 384c-99.413 0-298.667-49.92-298.667-149.333v-106.667h298.667v96c0 36.267 14.080 99.84 101.12 148.053-37.12 7.68-72.96 11.947-101.12 11.947z" />
<glyph unicode="&#xe67e;" d="M298.24 469.334l-170.24-170.667 170.24-170.667v128h299.093v85.333h-299.093v128zM896 554.667l-170.24 170.667v-128h-299.093v-85.333h299.093v-128l170.24 170.667z" />
<glyph unicode="&#xe67f;" d="M512 853.334c-235.52 0-426.667-191.147-426.667-426.667s191.147-426.667 426.667-426.667 426.667 191.147 426.667 426.667-191.147 426.667-426.667 426.667zM277.333 554.667l149.333 149.333 149.333-149.333h-106.667v-170.667h-85.333v170.667h-106.667zM746.667 298.667l-149.333-149.333-149.333 149.333h106.667v170.667h85.333v-170.667h106.667z" />
<glyph unicode="&#xe680;" d="M682.667 212.907v299.093h-85.333v-299.093h-128l170.667-170.24 170.667 170.24h-128zM384 810.667l-170.667-170.24h128v-299.093h85.333v299.093h128l-170.667 170.24z" />
<glyph unicode="&#xe681;" d="M512 234.667l170.667 170.667h-128v384h-85.333v-384h-128l170.667-170.667zM896 789.334h-256v-84.907h256v-598.613h-768v598.613h256v84.907h-256c-46.933 0-85.333-38.4-85.333-85.333v-597.333c0-46.933 38.4-85.333 85.333-85.333h768c46.933 0 85.333 38.4 85.333 85.333v597.333c0 46.933-38.4 85.333-85.333 85.333z" />
<glyph unicode="&#xe682;" d="M42.667 554.667h85.333v85.333h-85.333v-85.333zM42.667 384h85.333v85.333h-85.333v-85.333zM42.667 725.334h85.333v85.333c-46.933 0-85.333-38.4-85.333-85.333zM384 42.667h85.333v85.333h-85.333v-85.333zM42.667 213.334h85.333v85.333h-85.333v-85.333zM128 42.667v85.333h-85.333c0-46.933 38.4-85.333 85.333-85.333zM896 810.667h-341.333v-256h426.667v170.667c0 46.933-38.4 85.333-85.333 85.333zM896 213.334h85.333v85.333h-85.333v-85.333zM384 725.334h85.333v85.333h-85.333v-85.333zM213.333 42.667h85.333v85.333h-85.333v-85.333zM213.333 725.334h85.333v85.333h-85.333v-85.333zM896 42.667c46.933 0 85.333 38.4 85.333 85.333h-85.333v-85.333zM896 384h85.333v85.333h-85.333v-85.333zM554.667 42.667h85.333v85.333h-85.333v-85.333zM725.333 42.667h85.333v85.333h-85.333v-85.333z" />
<glyph unicode="&#xe683;" d="M896 810.667h-768c-46.933 0-85.333-38.4-85.333-85.333v-597.333c0-46.933 38.4-85.333 85.333-85.333h768c46.933 0 85.333 38.4 85.333 85.333v597.333c0 46.933-38.4 85.333-85.333 85.333zM896 128h-768v597.333h426.667v-170.667h341.333v-426.667z" />
<glyph unicode="&#xe684;" d="M768 810.667v-85.333h-85.333v85.333h-341.333v-85.333h-85.333v85.333h-85.333v-768h85.333v85.333h85.333v-85.333h341.333v85.333h85.333v-85.333h85.333v768h-85.333zM341.333 213.334h-85.333v85.333h85.333v-85.333zM341.333 384h-85.333v85.333h85.333v-85.333zM341.333 554.667h-85.333v85.333h85.333v-85.333zM768 213.334h-85.333v85.333h85.333v-85.333zM768 384h-85.333v85.333h85.333v-85.333zM768 554.667h-85.333v85.333h85.333v-85.333z" />
<glyph unicode="&#xe685;" d="M640 810.667h-384c-35.413 0-65.707-21.333-78.507-52.053l-128.853-300.8c-3.84-9.813-5.973-20.053-5.973-31.147v-81.493l0.427-0.427-0.427-3.413c0-46.933 38.4-85.333 85.333-85.333h269.227l-40.533-194.987-1.28-13.653c0-17.493 7.253-33.707 18.773-45.227l45.227-44.8 281.173 281.173c15.36 15.36 24.747 36.693 24.747 60.16v426.667c0 46.933-38.4 85.333-85.333 85.333zM810.667 810.667v-512h170.667v512h-170.667z" />
<glyph unicode="&#xe686;" d="M42.667 42.667h170.667v512h-170.667v-512zM981.333 512c0 46.933-38.4 85.333-85.333 85.333h-269.227l40.533 194.987 1.28 13.653c0 17.493-7.253 33.707-18.773 45.227l-45.227 44.8-280.747-281.173c-15.787-15.36-25.173-36.693-25.173-60.16v-426.667c0-46.933 38.4-85.333 85.333-85.333h384c35.413 0 65.707 21.333 78.507 52.053l128.853 300.8c3.84 9.813 5.973 20.053 5.973 31.147v81.493l-0.427 0.427 0.427 3.413z" />
<glyph unicode="&#xe687;" d="M512 682.667c0 23.467-19.2 42.667-42.667 42.667h-221.013l28.16 135.68 0.853 9.813c0 13.227-5.547 25.173-14.080 34.133l-33.707 33.707-210.773-210.773c-11.52-11.52-18.773-27.733-18.773-45.227v-277.333c0-35.413 28.587-64 64-64h288c26.453 0 49.067 16.213 58.88 38.827l96.427 225.707c2.987 7.253 4.693 15.36 4.693 23.467v53.333zM960 512h-288c-26.453 0-49.067-16.213-58.88-38.827l-96.427-225.707c-2.987-7.253-4.693-15.36-4.693-23.467v-53.333c0-23.467 19.2-42.667 42.667-42.667h221.013l-28.16-135.68-0.853-10.24c0-13.227 5.547-25.173 14.080-34.133l33.707-33.28 210.773 210.773c11.52 11.52 18.773 27.733 18.773 45.227v277.333c0 35.413-28.587 64-64 64z" />
<glyph unicode="&#xe688;" d="M128 554.667h597.333v85.333h-597.333v-85.333zM128 384h597.333v85.333h-597.333v-85.333zM128 213.334h597.333v85.333h-597.333v-85.333zM810.667 213.334h85.333v85.333h-85.333v-85.333zM810.667 640v-85.333h85.333v85.333h-85.333zM810.667 384h85.333v85.333h-85.333v-85.333z" />
<glyph unicode="&#xe689;" d="M810.667 810.667h-42.667v85.333h-85.333v-85.333h-341.333v85.333h-85.333v-85.333h-42.667c-47.36 0-84.907-38.4-84.907-85.333l-0.427-597.333c0-46.933 37.973-85.333 85.333-85.333h597.333c46.933 0 85.333 38.4 85.333 85.333v597.333c0 46.933-38.4 85.333-85.333 85.333zM810.667 128h-597.333v469.333h597.333v-469.333zM298.667 512h213.333v-213.333h-213.333z" />
<glyph unicode="&#xe68a;" d="M813.653 728.32l-60.16-60.16c61.44-61.867 99.84-147.2 99.84-241.493 0-188.587-152.747-341.333-341.333-341.333s-341.333 152.747-341.333 341.333c0 174.080 130.133 317.44 298.667 338.347v-86.187c-121.173-20.48-213.333-125.44-213.333-252.16 0-141.227 114.773-256 256-256s256 114.773 256 256c0 70.827-28.587 134.827-75.093 180.907l-60.16-60.16c30.72-31.147 49.92-73.813 49.92-120.747 0-94.293-76.373-170.667-170.667-170.667s-170.667 76.373-170.667 170.667c0 79.36 54.613 145.493 128 164.693v-91.307c-25.6-14.933-42.667-41.813-42.667-73.387 0-46.933 38.4-85.333 85.333-85.333s85.333 38.4 85.333 85.333c0 31.573-17.067 58.88-42.667 73.387v353.28h-42.667c-235.52 0-426.667-191.147-426.667-426.667s191.147-426.667 426.667-426.667 426.667 191.147 426.667 426.667c0 117.76-47.787 224.427-125.013 301.653z" />
<glyph unicode="&#xe68b;" d="M549.12 295.68l-108.373 107.093 1.28 1.28c74.24 82.773 127.147 177.92 158.293 278.613h125.013v85.333h-298.667v85.333h-85.333v-85.333h-298.667v-84.907h476.587c-28.587-82.347-73.813-160.427-135.253-228.693-39.68 43.947-72.533 92.16-98.56 142.933h-85.333c31.147-69.547 73.813-135.253 127.147-194.56l-217.173-214.187 60.587-60.587 213.333 213.333 132.693-132.693 32.427 87.040zM789.333 512h-85.333l-192-512h85.333l47.787 128h202.667l48.213-128h85.333l-192 512zM677.547 213.334l69.12 184.747 69.12-184.747h-138.24z" />
<glyph unicode="&#xe68c;" d="M682.667 170.667l97.707 97.707-208.213 208.213-170.667-170.667-316.16 316.587 60.16 60.16 256-256 170.667 170.667 268.8-268.373 97.707 97.707v-256z" />
<glyph unicode="&#xe68d;" d="M938.667 426.667l-170.667 170.667v-128h-640v-85.333h640v-128z" />
<glyph unicode="&#xe68e;" d="M682.667 682.667l97.707-97.707-208.213-208.213-170.667 170.667-316.16-316.587 60.16-60.16 256 256 170.667-170.667 268.8 268.373 97.707-97.707v256z" />
<glyph unicode="&#xe68f;" d="M725.333 810.667h-426.667c-46.933 0-84.907-38.4-84.907-85.333l-0.427-682.667 298.667 128 298.667-128v682.667c0 46.933-38.4 85.333-85.333 85.333zM725.333 170.667l-213.333 93.013-213.333-93.013v554.667h426.667v-554.667z" />
<glyph unicode="&#xe690;" d="M725.333 810.667h-426.667c-46.933 0-84.907-38.4-84.907-85.333l-0.427-682.667 298.667 128 298.667-128v682.667c0 46.933-38.4 85.333-85.333 85.333z" />
<glyph unicode="&#xe691;" d="M512 896l-384-170.667v-256c0-236.8 163.84-458.24 384-512 220.16 53.76 384 275.2 384 512v256l-384 170.667zM426.667 213.334l-170.667 170.667 60.16 60.16 110.507-110.080 281.173 281.173 60.16-60.587-341.333-341.333z" />
<glyph unicode="&#xe692;" d="M853.333 384h-725.333c-23.467 0-42.667-19.2-42.667-42.667v-256c0-23.467 19.2-42.667 42.667-42.667h725.333c23.467 0 42.667 19.2 42.667 42.667v256c0 23.467-19.2 42.667-42.667 42.667zM853.333 810.667h-725.333c-23.467 0-42.667-19.2-42.667-42.667v-256c0-23.467 19.2-42.667 42.667-42.667h725.333c23.467 0 42.667 19.2 42.667 42.667v256c0 23.467-19.2 42.667-42.667 42.667z" />
<glyph unicode="&#xe693;" d="M170.667 170.667h128v554.667h-128v-554.667zM768 725.334v-554.667h128v554.667h-128zM341.333 170.667h384v554.667h-384v-554.667z" />
<glyph unicode="&#xe694;" d="M298.667 128h426.667v640h-426.667v-640zM85.333 213.334h170.667v469.333h-170.667v-469.333zM768 682.667v-469.333h170.667v469.333h-170.667z" />
<glyph unicode="&#xe695;" d="M426.667 170.667h213.333v554.667h-213.333v-554.667zM170.667 170.667h213.333v554.667h-213.333v-554.667zM682.667 725.334v-554.667h213.333v554.667h-213.333z" />
<glyph unicode="&#xe696;" d="M85.333 42.667h810.667v128h-810.667v-128zM853.333 597.334h-725.333c-23.467 0-42.667-19.2-42.667-42.667v-256c0-23.467 19.2-42.667 42.667-42.667h725.333c23.467 0 42.667 19.2 42.667 42.667v256c0 23.467-19.2 42.667-42.667 42.667zM85.333 810.667v-128h810.667v128h-810.667z" />
<glyph unicode="&#xe697;" d="M170.667 298.667h725.333v85.333h-725.333v-85.333zM170.667 128h725.333v85.333h-725.333v-85.333zM170.667 469.334h725.333v85.333h-725.333v-85.333zM170.667 725.334v-85.333h725.333v85.333h-725.333z" />
<glyph unicode="&#xe698;" d="M170.667 341.334h170.667v170.667h-170.667v-170.667zM170.667 128h170.667v170.667h-170.667v-170.667zM170.667 554.667h170.667v170.667h-170.667v-170.667zM384 341.334h512v170.667h-512v-170.667zM384 128h512v170.667h-512v-170.667zM384 725.334v-170.667h512v170.667h-512z" />
<glyph unicode="&#xe699;" d="M170.667 469.334h213.333v256h-213.333v-256zM170.667 170.667h213.333v256h-213.333v-256zM426.667 170.667h213.333v256h-213.333v-256zM682.667 170.667h213.333v256h-213.333v-256zM426.667 469.334h213.333v256h-213.333v-256zM682.667 725.334v-256h213.333v256h-213.333z" />
<glyph unicode="&#xe69a;" d="M426.667 170.667h213.333v256h-213.333v-256zM170.667 170.667h213.333v554.667h-213.333v-554.667zM682.667 170.667h213.333v256h-213.333v-256zM426.667 725.334v-256h469.333v256h-469.333z" />
<glyph unicode="&#xe69b;" d="M170.667 170.667h725.333v256h-725.333v-256zM170.667 725.334v-256h725.333v256h-725.333z" />
<glyph unicode="&#xe69c;" d="M256 725.334h-128c-23.467 0-42.667-19.2-42.667-42.667v-512c0-23.467 19.2-42.667 42.667-42.667h128c23.467 0 42.667 19.2 42.667 42.667v512c0 23.467-19.2 42.667-42.667 42.667zM853.333 725.334h-128c-23.467 0-42.667-19.2-42.667-42.667v-512c0-23.467 19.2-42.667 42.667-42.667h128c23.467 0 42.667 19.2 42.667 42.667v512c0 23.467-19.2 42.667-42.667 42.667zM554.667 725.334h-128c-23.467 0-42.667-19.2-42.667-42.667v-512c0-23.467 19.2-42.667 42.667-42.667h128c23.467 0 42.667 19.2 42.667 42.667v512c0 23.467-19.2 42.667-42.667 42.667z" />
<glyph unicode="&#xe69d;" d="M512 640c117.76 0 213.333-95.573 213.333-213.333 0-27.733-5.547-53.76-15.36-78.080l124.587-124.587c64.427 53.76 115.2 123.307 146.347 202.667-73.813 187.307-256 320-469.333 320-59.733 0-116.907-10.667-169.813-29.867l92.16-92.16c24.32 9.813 50.347 15.36 78.080 15.36zM85.333 756.48l116.907-116.907c-70.827-55.040-126.293-128.427-159.573-212.907 73.813-187.307 256-320 469.333-320 66.133 0 129.28 12.8 186.88 35.84l17.92-17.92 125.013-124.587 54.187 54.187-756.48 756.48-54.187-54.187zM321.28 520.534l66.133-66.133c-2.133-8.96-3.413-18.347-3.413-27.733 0-70.827 57.173-128 128-128 9.387 0 18.773 1.28 27.733 3.413l66.133-66.133c-28.587-14.080-60.16-22.613-93.867-22.613-117.76 0-213.333 95.573-213.333 213.333 0 33.707 8.533 65.28 22.613 93.867zM505.173 553.814l134.4-134.4 0.853 6.827c0 70.827-57.173 128-128 128l-7.253-0.427z" />
<glyph unicode="&#xe69e;" d="M512 746.667c-213.333 0-395.52-132.693-469.333-320 73.813-187.307 256-320 469.333-320s395.52 132.693 469.333 320c-73.813 187.307-256 320-469.333 320zM512 213.334c-117.76 0-213.333 95.573-213.333 213.333s95.573 213.333 213.333 213.333 213.333-95.573 213.333-213.333-95.573-213.333-213.333-213.333zM512 554.667c-70.827 0-128-57.173-128-128s57.173-128 128-128 128 57.173 128 128-57.173 128-128 128z" />
<glyph unicode="&#xe69f;" d="M853.333 682.667h-93.013c4.693 13.227 7.68 27.733 7.68 42.667 0 70.827-57.173 128-128 128-44.8 0-83.627-23.040-106.667-57.6l-21.333-28.587-21.333 29.013c-23.040 34.133-61.867 57.173-106.667 57.173-70.827 0-128-57.173-128-128 0-14.933 2.987-29.44 7.68-42.667h-93.013c-47.36 0-84.907-37.973-84.907-85.333l-0.427-469.333c0-47.36 37.973-85.333 85.333-85.333h682.667c47.36 0 85.333 37.973 85.333 85.333v469.333c0 47.36-37.973 85.333-85.333 85.333zM640 768c23.467 0 42.667-19.2 42.667-42.667s-19.2-42.667-42.667-42.667-42.667 19.2-42.667 42.667 19.2 42.667 42.667 42.667zM384 768c23.467 0 42.667-19.2 42.667-42.667s-19.2-42.667-42.667-42.667-42.667 19.2-42.667 42.667 19.2 42.667 42.667 42.667zM853.333 128h-682.667v85.333h682.667v-85.333zM853.333 341.334h-682.667v256h216.747l-88.747-120.747 69.12-49.92 144.213 196.267 144.213-196.267 69.12 49.92-88.747 120.747h216.747v-256z" />
<glyph unicode="&#xe6a0;" d="M853.333 853.334h-682.667c-47.36 0-85.333-37.973-85.333-85.333v-469.333c0-47.36 37.973-85.333 85.333-85.333h170.667v-213.333l170.667 85.333 170.667-85.333v213.333h170.667c47.36 0 85.333 37.973 85.333 85.333v469.333c0 47.36-37.973 85.333-85.333 85.333zM853.333 298.667h-682.667v85.333h682.667v-85.333zM853.333 512h-682.667v256h682.667v-256z" />
<glyph unicode="&#xe6a1;" d="M853.333 682.667h-128v85.333c0 47.36-37.973 85.333-85.333 85.333h-256c-47.36 0-85.333-37.973-85.333-85.333v-85.333h-128c-47.36 0-85.333-37.973-85.333-85.333v-469.333c0-47.36 37.973-85.333 85.333-85.333h682.667c47.36 0 85.333 37.973 85.333 85.333v469.333c0 47.36-37.973 85.333-85.333 85.333zM384 768h256v-85.333h-256v85.333zM853.333 128h-682.667v85.333h682.667v-85.333zM853.333 341.334h-682.667v256h128v-85.333h85.333v85.333h256v-85.333h85.333v85.333h128v-256z" />
<glyph unicode="&#xe6a2;" d="M853.333 682.667h-170.667v85.333c0 47.36-37.973 85.333-85.333 85.333h-170.667c-47.36 0-85.333-37.973-85.333-85.333v-85.333h-170.667c-47.36 0-84.907-37.973-84.907-85.333l-0.427-469.333c0-47.36 37.973-85.333 85.333-85.333h682.667c47.36 0 85.333 37.973 85.333 85.333v469.333c0 47.36-37.973 85.333-85.333 85.333zM597.333 682.667h-170.667v85.333h170.667v-85.333z" />
<glyph unicode="&#xe6a3;" d="M512 853.334c-235.52 0-426.667-191.147-426.667-426.667s191.147-426.667 426.667-426.667 426.667 191.147 426.667 426.667-191.147 426.667-426.667 426.667zM554.667 213.334h-85.333v85.333h85.333v-85.333zM554.667 384h-85.333v256h85.333v-256z" />
<glyph unicode="&#xe6a4;" d="M42.667 42.667h938.667l-469.333 810.667-469.333-810.667zM554.667 170.667h-85.333v85.333h85.333v-85.333zM554.667 341.334h-85.333v170.667h85.333v-170.667z" />
<glyph unicode="&#xe6a5;" d="M512 853.334c-235.52 0-426.667-191.147-426.667-426.667s191.147-426.667 426.667-426.667 426.667 191.147 426.667 426.667-191.147 426.667-426.667 426.667zM512 234.667c-106.24 0-192 85.76-192 192s85.76 192 192 192 192-85.76 192-192-85.76-192-192-192zM512 469.334c-23.467 0-42.667-19.2-42.667-42.667s19.2-42.667 42.667-42.667 42.667 19.2 42.667 42.667-19.2 42.667-42.667 42.667z" />
<glyph unicode="&#xe6a6;" d="M810.667 768h-597.333c-47.36 0-85.333-38.4-85.333-85.333v-512c0-46.933 37.973-85.333 85.333-85.333h597.333c46.933 0 85.333 38.4 85.333 85.333v512c0 46.933-38.4 85.333-85.333 85.333zM469.333 469.334h-64v21.333h-85.333v-128h85.333v21.333h64v-42.667c0-23.467-19.2-42.667-42.667-42.667h-128c-23.467 0-42.667 19.2-42.667 42.667v170.667c0 23.467 19.2 42.667 42.667 42.667h128c23.467 0 42.667-19.2 42.667-42.667v-42.667zM768 469.334h-64v21.333h-85.333v-128h85.333v21.333h64v-42.667c0-23.467-19.2-42.667-42.667-42.667h-128c-23.467 0-42.667 19.2-42.667 42.667v170.667c0 23.467 19.2 42.667 42.667 42.667h128c23.467 0 42.667-19.2 42.667-42.667v-42.667z" />
<glyph unicode="&#xe6a7;" d="M426.667 85.334h170.667v682.667h-170.667v-682.667zM170.667 85.334h170.667v341.333h-170.667v-341.333zM682.667 554.667v-469.333h170.667v469.333h-170.667z" />
<glyph unicode="&#xe6a8;" d="M810.667 810.667h-597.333c-46.933 0-85.333-38.4-85.333-85.333v-597.333c0-46.933 38.4-85.333 85.333-85.333h597.333c46.933 0 85.333 38.4 85.333 85.333v597.333c0 46.933-38.4 85.333-85.333 85.333zM640 554.667h-170.667v-85.333h170.667v-85.333h-170.667v-85.333h170.667v-85.333h-256v426.667h256v-85.333z" />
<glyph unicode="&#xe6a9;" d="M170.667 170.667l362.667 256-362.667 256v-512zM554.667 682.667v-512l362.667 256-362.667 256z" />
<glyph unicode="&#xe6aa;" d="M469.333 170.667v512l-362.667-256 362.667-256zM490.667 426.667l362.667-256v512l-362.667-256z" />
<glyph unicode="&#xe6ab;" d="M640 618.667v234.667h-256v-234.667l128-128 128 128zM320 554.667h-234.667v-256h234.667l128 128-128 128zM384 234.667v-234.667h256v234.667l-128 128-128-128zM704 554.667l-128-128 128-128h234.667v256h-234.667z" />
<glyph unicode="&#xe6ac;" d="M725.333 85.334c-12.373 0-23.893 2.56-32.427 6.4-30.293 15.787-51.627 37.547-72.96 101.547-21.76 66.56-62.72 97.707-101.973 128-33.707 26.027-68.693 52.907-98.987 107.947-22.613 40.96-34.987 85.76-34.987 125.44 0 119.467 93.867 213.333 213.333 213.333s213.333-93.867 213.333-213.333h85.333c0 167.68-130.987 298.667-298.667 298.667s-298.667-130.987-298.667-298.667c0-53.76 16.213-113.067 45.653-166.4 38.827-70.4 84.48-105.813 121.6-134.4 34.56-26.453 59.307-45.653 72.96-87.467 25.6-77.653 58.453-121.173 116.48-151.467 21.76-9.813 45.653-14.933 69.973-14.933 94.293 0 170.667 76.373 170.667 170.667h-85.333c0-46.933-38.4-85.333-85.333-85.333zM325.973 826.027l-60.587 60.587c-84.907-84.907-137.387-202.24-137.387-331.947s52.48-247.040 137.387-331.947l60.16 60.16c-69.12 69.547-112.213 165.547-112.213 271.787s43.093 202.24 112.64 271.36zM490.667 554.667c0-58.88 47.787-106.667 106.667-106.667s106.667 47.787 106.667 106.667-47.787 106.667-106.667 106.667-106.667-47.787-106.667-106.667z" />
<glyph unicode="&#xe6ad;" d="M810.667 768h-597.333c-47.36 0-85.333-38.4-85.333-85.333v-512c0-46.933 37.973-85.333 85.333-85.333h597.333c46.933 0 85.333 38.4 85.333 85.333v512c0 46.933-38.4 85.333-85.333 85.333zM469.333 298.667h-64v85.333h-85.333v-85.333h-64v256h64v-106.667h85.333v106.667h64v-256zM768 341.334c0-23.467-19.2-42.667-42.667-42.667h-32v-64h-64v64h-32c-23.467 0-42.667 19.2-42.667 42.667v170.667c0 23.467 19.2 42.667 42.667 42.667h128c23.467 0 42.667-19.2 42.667-42.667v-170.667zM618.667 362.667h85.333v128h-85.333v-128z" />
<glyph unicode="&#xe6ae;" d="M512 768v128l-170.667-170.667 170.667-170.667v128c141.227 0 256-114.773 256-256 0-43.093-10.667-84.053-29.867-119.467l62.293-62.293c33.28 52.48 52.907 114.773 52.907 181.76 0 188.587-152.747 341.333-341.333 341.333zM512 170.667c-141.227 0-256 114.773-256 256 0 43.093 10.667 84.053 29.867 119.467l-62.293 62.293c-33.28-52.48-52.907-114.773-52.907-181.76 0-188.587 152.747-341.333 341.333-341.333v-128l170.667 170.667-170.667 170.667v-128z" />
<glyph unicode="&#xe6af;" d="M512 341.334c70.827 0 127.573 57.173 127.573 128l0.427 256c0 70.827-57.173 128-128 128s-128-57.173-128-128v-256c0-70.827 57.173-128 128-128zM460.8 729.6c0 28.16 23.040 51.2 51.2 51.2s51.2-23.040 51.2-51.2l-0.427-264.533c0-28.16-22.613-51.2-50.773-51.2s-51.2 23.040-51.2 51.2v264.533zM738.133 469.334c0-128-108.373-217.6-226.133-217.6s-226.133 89.6-226.133 217.6h-72.533c0-145.493 116.053-265.813 256-286.72v-139.947h85.333v139.947c139.947 20.48 256 140.8 256 286.72h-72.533z" />
<glyph unicode="&#xe6b0;" d="M810.667 469.334h-72.533c0-31.573-6.827-61.013-18.347-87.467l52.48-52.48c23.893 41.813 38.4 89.173 38.4 139.947zM639.147 462.080c0 2.56 0.853 4.693 0.853 7.253v256c0 70.827-57.173 128-128 128s-128-57.173-128-128v-7.68l255.147-255.573zM182.187 810.667l-54.187-54.187 256.427-256.427v-30.72c0-70.827 56.747-128 127.573-128 9.387 0 18.773 1.28 27.733 3.413l70.827-70.827c-30.293-14.080-64-22.187-98.56-22.187-117.76 0-226.133 89.6-226.133 217.6h-72.533c0-145.493 116.053-265.813 256-286.72v-139.947h85.333v139.947c38.827 5.547 75.52 19.2 108.373 38.4l178.773-178.347 54.187 54.187-713.813 713.813z" />
<glyph unicode="&#xe6b1;" d="M512 341.334c70.827 0 127.573 57.173 127.573 128l0.427 256c0 70.827-57.173 128-128 128s-128-57.173-128-128v-256c0-70.827 57.173-128 128-128zM738.133 469.334c0-128-108.373-217.6-226.133-217.6s-226.133 89.6-226.133 217.6h-72.533c0-145.493 116.053-265.813 256-286.72v-139.947h85.333v139.947c139.947 20.48 256 140.8 256 286.72h-72.533z" />
<glyph unicode="&#xe6b2;" d="M768 768l85.333-170.667h-128l-85.333 170.667h-85.333l85.333-170.667h-128l-85.333 170.667h-85.333l85.333-170.667h-128l-85.333 170.667h-42.667c-46.933 0-84.907-38.4-84.907-85.333l-0.427-512c0-46.933 38.4-85.333 85.333-85.333h682.667c46.933 0 85.333 38.4 85.333 85.333v597.333h-170.667z" />
<glyph unicode="&#xe6b3;" d="M170.667 682.667h-85.333v-597.333c0-46.933 38.4-85.333 85.333-85.333h597.333v85.333h-597.333v597.333zM853.333 853.334h-512c-46.933 0-85.333-38.4-85.333-85.333v-512c0-46.933 38.4-85.333 85.333-85.333h512c46.933 0 85.333 38.4 85.333 85.333v512c0 46.933-38.4 85.333-85.333 85.333zM810.667 469.334h-170.667v-170.667h-85.333v170.667h-170.667v85.333h170.667v170.667h85.333v-170.667h170.667v-85.333z" />
<glyph unicode="&#xe6b4;" d="M170.667 682.667h-85.333v-597.333c0-46.933 38.4-85.333 85.333-85.333h597.333v85.333h-597.333v597.333zM853.333 853.334h-512c-46.933 0-85.333-38.4-85.333-85.333v-512c0-46.933 38.4-85.333 85.333-85.333h512c46.933 0 85.333 38.4 85.333 85.333v512c0 46.933-38.4 85.333-85.333 85.333zM810.667 469.334h-426.667v85.333h426.667v-85.333zM640 298.667h-256v85.333h256v-85.333zM810.667 640h-426.667v85.333h426.667v-85.333z" />
<glyph unicode="&#xe6b5;" d="M853.333 853.334h-512c-46.933 0-85.333-38.4-85.333-85.333v-512c0-46.933 38.4-85.333 85.333-85.333h512c46.933 0 85.333 38.4 85.333 85.333v512c0 46.933-38.4 85.333-85.333 85.333zM768 640h-128v-234.667c0-58.88-47.787-106.667-106.667-106.667s-106.667 47.787-106.667 106.667 47.787 106.667 106.667 106.667c24.32 0 46.080-8.107 64-21.76v235.093h170.667v-85.333zM170.667 682.667h-85.333v-597.333c0-46.933 38.4-85.333 85.333-85.333h597.333v85.333h-597.333v597.333z" />
<glyph unicode="&#xe6b6;" d="M981.333 426.667l-104.107 118.613 14.507 157.013-154.027 34.987-80.64 135.68-145.067-62.293-145.067 62.293-80.64-135.68-154.027-34.56 14.507-157.013-104.107-119.040 104.107-118.613-14.507-157.44 154.027-34.987 80.64-135.68 145.067 62.72 145.067-62.293 80.64 135.68 154.027 34.987-14.507 157.013 104.107 118.613zM554.667 213.334h-85.333v85.333h85.333v-85.333zM554.667 384h-85.333v256h85.333v-256z" />
<glyph unicode="&#xe6b7;" d="M512 853.334c-235.52 0-426.667-191.147-426.667-426.667s191.147-426.667 426.667-426.667 426.667 191.147 426.667 426.667-191.147 426.667-426.667 426.667zM512 85.334c-188.587 0-341.333 152.747-341.333 341.333 0 78.933 26.88 151.467 72.107 209.067l478.293-478.293c-57.6-45.227-130.133-72.107-209.067-72.107zM781.227 217.6l-478.293 478.293c57.6 45.227 130.133 72.107 209.067 72.107 188.587 0 341.333-152.747 341.333-341.333 0-78.933-26.88-151.467-72.107-209.067z" />
<glyph unicode="&#xe6b8;" d="M512 853.334c-235.52 0-426.667-191.147-426.667-426.667s191.147-426.667 426.667-426.667 426.667 191.147 426.667 426.667-191.147 426.667-426.667 426.667zM469.333 256h-85.333v341.333h85.333v-341.333zM640 256h-85.333v341.333h85.333v-341.333z" />
<glyph unicode="&#xe6b9;" d="M384 256h85.333v341.333h-85.333v-341.333zM512 853.334c-235.52 0-426.667-191.147-426.667-426.667s191.147-426.667 426.667-426.667 426.667 191.147 426.667 426.667-191.147 426.667-426.667 426.667zM512 85.334c-188.16 0-341.333 153.173-341.333 341.333s153.173 341.333 341.333 341.333 341.333-153.173 341.333-341.333-153.173-341.333-341.333-341.333zM554.667 256h85.333v341.333h-85.333v-341.333z" />
<glyph unicode="&#xe6ba;" d="M256 128h170.667v597.333h-170.667v-597.333zM597.333 725.334v-597.333h170.667v597.333h-170.667z" />
<glyph unicode="&#xe6bb;" d="M341.333 725.334v-597.333l469.333 298.667z" />
<glyph unicode="&#xe6bc;" d="M512 853.334c-235.52 0-426.667-191.147-426.667-426.667s191.147-426.667 426.667-426.667 426.667 191.147 426.667 426.667-191.147 426.667-426.667 426.667zM426.667 234.667v384l256-192-256-192z" />
<glyph unicode="&#xe6bd;" d="M426.667 234.667l256 192-256 192v-384zM512 853.334c-235.52 0-426.667-191.147-426.667-426.667s191.147-426.667 426.667-426.667 426.667 191.147 426.667 426.667-191.147 426.667-426.667 426.667zM512 85.334c-188.16 0-341.333 153.173-341.333 341.333s153.173 341.333 341.333 341.333 341.333-153.173 341.333-341.333-153.173-341.333-341.333-341.333z" />
<glyph unicode="&#xe6be;" d="M682.667 682.667v85.333c0 47.36-37.973 85.333-85.333 85.333h-170.667c-47.36 0-85.333-37.973-85.333-85.333v-85.333h-256v-554.667c0-47.36 37.973-85.333 85.333-85.333h682.667c47.36 0 85.333 37.973 85.333 85.333v554.667h-256zM426.667 768h170.667v-85.333h-170.667v85.333zM384 170.667v384l320-170.667-320-213.333z" />
<glyph unicode="&#xe6bf;" d="M597.333 512h-512v-85.333h512v85.333zM597.333 682.667h-512v-85.333h512v85.333zM768 341.334v170.667h-85.333v-170.667h-170.667v-85.333h170.667v-170.667h85.333v170.667h170.667v85.333h-170.667zM85.333 256h341.333v85.333h-341.333v-85.333z" />
<glyph unicode="&#xe6c0;" d="M640 682.667h-512v-85.333h512v85.333zM640 512h-512v-85.333h512v85.333zM128 256h341.333v85.333h-341.333v-85.333zM725.333 682.667v-349.013c-13.227 4.693-27.733 7.68-42.667 7.68-70.827 0-128-57.173-128-128s57.173-128 128-128 128 57.173 128 128v384h128v85.333h-213.333z" />
<glyph unicode="&#xe6c1;" d="M170.667 682.667h-85.333v-597.333c0-46.933 38.4-85.333 85.333-85.333h597.333v85.333h-597.333v597.333zM853.333 853.334h-512c-46.933 0-85.333-38.4-85.333-85.333v-512c0-46.933 38.4-85.333 85.333-85.333h512c46.933 0 85.333 38.4 85.333 85.333v512c0 46.933-38.4 85.333-85.333 85.333zM810.667 469.334h-170.667v-170.667h-85.333v170.667h-170.667v85.333h170.667v170.667h85.333v-170.667h170.667v-85.333z" />
<glyph unicode="&#xe6c2;" d="M138.24 676.267c-31.147-11.947-52.907-43.52-52.907-78.933v-512c0-46.933 37.973-85.333 85.333-85.333h682.667c47.36 0 85.333 38.4 85.333 85.333v512c0 47.36-37.973 85.333-85.333 85.333h-499.2l352.427 142.507-29.013 70.827-539.307-219.733zM298.667 85.334c-70.827 0-128 57.173-128 128s57.173 128 128 128 128-57.173 128-128-57.173-128-128-128zM853.333 426.667h-85.333v85.333h-85.333v-85.333h-512v170.667h682.667v-170.667z" />
<glyph unicode="&#xe6c3;" d="M896 725.334v-597.333h85.333v597.333h-85.333zM725.333 128h85.333v597.333h-85.333v-597.333zM597.333 725.334h-512c-23.467 0-42.667-19.2-42.667-42.667v-512c0-23.467 19.2-42.667 42.667-42.667h512c23.467 0 42.667 19.2 42.667 42.667v512c0 23.467-19.2 42.667-42.667 42.667zM341.333 608c52.907 0 96-43.093 96-96s-43.093-96-96-96-96 43.093-96 96 43.093 96 96 96zM533.333 213.334h-384v32c0 64 128 96 192 96s192-32 192-96v-32z" />
<glyph unicode="&#xe6c4;" d="M298.667 640h426.667v-128l170.667 170.667-170.667 170.667v-128h-512v-256h85.333v170.667zM725.333 213.334h-426.667v128l-170.667-170.667 170.667-170.667v128h512v256h-85.333v-170.667zM554.667 298.667v256h-42.667l-85.333-42.667v-42.667h64v-170.667h64z" />
<glyph unicode="&#xe6c5;" d="M298.667 640h426.667v-128l170.667 170.667-170.667 170.667v-128h-512v-256h85.333v170.667zM725.333 213.334h-426.667v128l-170.667-170.667 170.667-170.667v128h512v256h-85.333v-170.667z" />
<glyph unicode="&#xe6c6;" d="M512 725.334v170.667l-213.333-213.333 213.333-213.333v170.667c141.227 0 256-114.773 256-256s-114.773-256-256-256-256 114.773-256 256h-85.333c0-188.587 152.747-341.333 341.333-341.333s341.333 152.747 341.333 341.333-152.747 341.333-341.333 341.333z" />
<glyph unicode="&#xe6c7;" d="M451.84 547.414l-221.013 220.587-60.16-60.16 220.587-220.587 60.587 60.16zM618.667 768l87.040-87.040-535.040-535.467 60.16-60.16 535.467 535.040 87.040-87.040v234.667h-234.667zM632.747 366.507l-60.16-60.16 133.547-133.547-87.467-87.467h234.667v234.667l-87.040-87.040-133.547 133.547z" />
<glyph unicode="&#xe6c8;" d="M256 170.667l362.667 256-362.667 256v-512zM682.667 682.667v-512h85.333v512h-85.333z" />
<glyph unicode="&#xe6c9;" d="M256 682.667h85.333v-512h-85.333zM405.333 426.667l362.667-256v512z" />
<glyph unicode="&#xe6ca;" d="M336.213 794.027l-54.613 65.28-196.267-164.267 55.040-65.28 195.84 164.267zM938.667 694.614l-196.267 164.693-55.040-65.28 196.267-164.693 55.040 65.28zM512 768c-212.053 0-384-171.947-384-384s171.52-384 384-384c212.053 0 384 171.947 384 384s-171.947 384-384 384zM512 85.334c-165.12 0-298.667 133.547-298.667 298.667s133.547 298.667 298.667 298.667 298.667-133.547 298.667-298.667-133.547-298.667-298.667-298.667zM384 469.334h154.88l-154.88-179.2v-76.8h256v85.333h-154.88l154.88 179.2v76.8h-256v-85.333z" />
<glyph unicode="&#xe6cb;" d="M256 682.667h512v-512h-512z" />
<glyph unicode="&#xe6cc;" d="M853.333 768h-682.667c-46.933 0-85.333-38.4-85.333-85.333v-512c0-46.933 38.4-85.333 85.333-85.333h682.667c46.933 0 85.333 38.4 85.333 85.333v512c0 46.933-38.4 85.333-85.333 85.333zM170.667 426.667h170.667v-85.333h-170.667v85.333zM597.333 170.667h-426.667v85.333h426.667v-85.333zM853.333 170.667h-170.667v85.333h170.667v-85.333zM853.333 341.334h-426.667v85.333h426.667v-85.333z" />
<glyph unicode="&#xe6cd;" d="M853.333 768h-682.667c-46.933 0-85.333-38.4-85.333-85.333v-512c0-46.933 38.4-85.333 85.333-85.333h682.667c46.933 0 85.333 38.4 85.333 85.333v512c0 46.933-38.4 85.333-85.333 85.333zM331.093 245.76l-60.16-60.16c-66.987 66.133-100.267 153.6-100.267 241.067s33.28 174.933 99.84 241.493l60.16-60.16c-49.493-50.347-74.667-115.627-74.667-181.333s25.173-130.987 75.093-180.907zM512 256c-94.293 0-170.667 76.373-170.667 170.667s76.373 170.667 170.667 170.667 170.667-76.373 170.667-170.667-76.373-170.667-170.667-170.667zM753.493 185.174l-60.16 60.16c49.493 50.347 74.667 115.627 74.667 181.333s-25.173 130.987-75.093 180.907l60.16 60.16c66.987-66.133 100.267-153.6 100.267-241.067s-33.28-174.933-99.84-241.493zM512 512c-46.933 0-85.333-38.4-85.333-85.333s38.4-85.333 85.333-85.333 85.333 38.4 85.333 85.333-38.4 85.333-85.333 85.333z" />
<glyph unicode="&#xe6ce;" d="M469.333 213.334c0-23.467 19.2-42.667 42.667-42.667s42.667 19.2 42.667 42.667-19.2 42.667-42.667 42.667-42.667-19.2-42.667-42.667zM469.333 810.667v-170.667h85.333v81.92c144.64-20.907 256-144.64 256-295.253 0-165.12-133.547-298.667-298.667-298.667s-298.667 133.547-298.667 298.667c0 71.68 25.173 137.387 67.413 188.587l231.253-231.253 60.16 60.16-290.133 290.133v-0.853c-93.44-69.973-154.027-180.907-154.027-306.773 0-212.053 171.52-384 384-384 212.053 0 384 171.947 384 384s-171.947 384-384 384h-42.667zM768 426.667c0 23.467-19.2 42.667-42.667 42.667s-42.667-19.2-42.667-42.667 19.2-42.667 42.667-42.667 42.667 19.2 42.667 42.667zM256 426.667c0-23.467 19.2-42.667 42.667-42.667s42.667 19.2 42.667 42.667-19.2 42.667-42.667 42.667-42.667-19.2-42.667-42.667z" />
<glyph unicode="&#xe6cf;" d="M170.667 682.667h-85.333v-597.333c0-46.933 38.4-85.333 85.333-85.333h597.333v85.333h-597.333v597.333zM853.333 853.334h-512c-46.933 0-85.333-38.4-85.333-85.333v-512c0-46.933 38.4-85.333 85.333-85.333h512c46.933 0 85.333 38.4 85.333 85.333v512c0 46.933-38.4 85.333-85.333 85.333zM512 320v384l256-192-256-192z" />
<glyph unicode="&#xe6d0;" d="M896 661.334l-170.667-170.667v149.333c0 23.467-19.2 42.667-42.667 42.667h-263.68l477.013-477.013v455.68zM139.52 853.334l-54.187-54.187 116.48-116.48h-31.147c-23.467 0-42.667-19.2-42.667-42.667v-426.667c0-23.467 19.2-42.667 42.667-42.667h512c8.96 0 16.64 3.413 23.040 7.68l136.107-135.68 54.187 54.187-756.48 756.48z" />
<glyph unicode="&#xe6d1;" d="M725.333 490.667v149.333c0 23.467-19.2 42.667-42.667 42.667h-512c-23.467 0-42.667-19.2-42.667-42.667v-426.667c0-23.467 19.2-42.667 42.667-42.667h512c23.467 0 42.667 19.2 42.667 42.667v149.333l170.667-170.667v469.333l-170.667-170.667z" />
<glyph unicode="&#xe6d2;" d="M789.333 426.667c0 75.52-43.52 140.373-106.667 171.947v-343.467c63.147 31.147 106.667 96 106.667 171.52zM213.333 554.667v-256h170.667l213.333-213.333v682.667l-213.333-213.333h-170.667z" />
<glyph unicode="&#xe6d3;" d="M298.667 554.667v-256h170.667l213.333-213.333v682.667l-213.333-213.333h-170.667z" />
<glyph unicode="&#xe6d4;" d="M704 426.667c0 75.52-43.52 140.373-106.667 171.947v-94.293l104.533-104.533c1.28 8.533 2.133 17.493 2.133 26.88zM810.667 426.667c0-40.107-8.533-77.653-23.040-112.64l64.427-64.427c28.16 52.907 43.947 113.067 43.947 177.067 0 182.613-127.573 335.36-298.667 374.187v-87.893c123.307-36.693 213.333-151.040 213.333-286.293zM182.187 810.667l-54.187-54.187 201.813-201.813h-201.813v-256h170.667l213.333-213.333v287.147l181.333-181.333c-28.587-22.187-60.587-39.68-96-50.347v-87.893c58.88 13.227 112.213 40.533 157.44 77.227l87.040-87.467 54.187 54.187-713.813 713.813zM512 768l-89.173-89.173 89.173-89.173v178.347z" />
<glyph unicode="&#xe6d5;" d="M128 554.667v-256h170.667l213.333-213.333v682.667l-213.333-213.333h-170.667zM704 426.667c0 75.52-43.52 140.373-106.667 171.947v-343.467c63.147 31.147 106.667 96 106.667 171.52zM597.333 800.854v-87.893c123.307-36.693 213.333-151.040 213.333-286.293s-90.027-249.6-213.333-286.293v-87.893c171.093 38.827 298.667 191.573 298.667 374.187s-127.573 335.36-298.667 374.187z" />
<glyph unicode="&#xe6d6;" d="M853.333 768h-682.667c-46.933 0-84.907-38.4-84.907-85.333l-0.427-512c0-46.933 38.4-85.333 85.333-85.333h682.667c46.933 0 85.333 38.4 85.333 85.333v512c0 46.933-38.4 85.333-85.333 85.333zM640 170.667h-469.333v170.667h469.333v-170.667zM640 384h-469.333v170.667h469.333v-170.667zM853.333 170.667h-170.667v384h170.667v-384z" />
<glyph unicode="&#xe6d7;" d="M512 640v170.667h-426.667v-768h853.333v597.333h-426.667zM256 128h-85.333v85.333h85.333v-85.333zM256 298.667h-85.333v85.333h85.333v-85.333zM256 469.334h-85.333v85.333h85.333v-85.333zM256 640h-85.333v85.333h85.333v-85.333zM426.667 128h-85.333v85.333h85.333v-85.333zM426.667 298.667h-85.333v85.333h85.333v-85.333zM426.667 469.334h-85.333v85.333h85.333v-85.333zM426.667 640h-85.333v85.333h85.333v-85.333zM853.333 128h-341.333v85.333h85.333v85.333h-85.333v85.333h85.333v85.333h-85.333v85.333h341.333v-426.667zM768 469.334h-85.333v-85.333h85.333v85.333zM768 298.667h-85.333v-85.333h85.333v85.333z" />
<glyph unicode="&#xe6d8;" d="M512 554.667c-68.267 0-134.4-10.667-196.267-30.72v-132.267c0-16.64-9.813-31.573-23.893-38.4-41.813-20.907-79.787-47.787-113.493-78.933-7.68-7.68-18.347-11.947-29.867-11.947-11.947 0-22.613 4.693-30.293 12.373l-105.813 105.813c-7.68 7.253-12.373 17.92-12.373 29.867s4.693 22.613 12.373 30.293c130.133 123.307 305.92 199.253 499.627 199.253s369.493-75.947 499.627-199.253c7.68-7.68 12.373-18.347 12.373-30.293s-4.693-22.613-12.373-30.293l-105.813-105.813c-7.68-7.68-18.347-12.373-30.293-12.373-11.52 0-22.187 4.693-29.867 11.947-33.707 31.573-72.107 58.027-113.92 78.933-14.080 6.827-23.893 21.333-23.893 38.4v132.267c-61.44 20.48-127.573 31.147-195.84 31.147z" />
<glyph unicode="&#xe6d9;" d="M384 725.334v-85.333h281.173l-494.507-494.507 60.16-60.16 494.507 494.507v-281.173h85.333v426.667z" />
<glyph unicode="&#xe6da;" d="M725.333 67.84l60.16 60.16-145.493 145.493-60.16-60.16 145.493-145.493zM320 597.334h149.333v-238.507l-230.827-230.827 60.16-60.16 256 256v273.493h149.333l-192 192-192-192z" />
<glyph unicode="&#xe6db;" d="M835.84 640l-323.84-323.84-238.507 238.507h195.84v85.333h-341.333v-341.333h85.333v195.84l298.667-298.667 384 384z" />
<glyph unicode="&#xe6dc;" d="M853.333 707.84l-60.16 60.16-494.507-494.507v281.173h-85.333v-426.667h426.667v85.333h-281.173z" />
<glyph unicode="&#xe6dd;" d="M597.333 768l97.707-97.707-122.88-122.88 60.587-60.587 122.88 122.88 97.707-97.707v256zM426.667 768h-256v-256l97.707 97.707 200.96-200.533v-323.84h85.333v358.827l-225.707 226.133z" />
<glyph unicode="&#xe6de;" d="M282.453 478.294c61.44-120.747 160.427-219.307 281.173-281.173l93.867 93.867c11.52 11.52 28.587 15.36 43.52 10.24 47.787-15.787 99.413-24.32 152.32-24.32 23.467 0 42.667-19.2 42.667-42.667v-148.907c0-23.467-19.2-42.667-42.667-42.667-400.64 0-725.333 324.693-725.333 725.333 0 23.467 19.2 42.667 42.667 42.667h149.333c23.467 0 42.667-19.2 42.667-42.667 0-53.333 8.533-104.533 24.32-152.32 4.693-14.933 1.28-31.573-10.667-43.52l-93.867-93.867z" />
<glyph unicode="&#xe6df;" d="M853.333 853.334h-682.667c-46.933 0-84.907-38.4-84.907-85.333l-0.427-768 170.667 170.667h597.333c46.933 0 85.333 38.4 85.333 85.333v512c0 46.933-38.4 85.333-85.333 85.333zM256 554.667h512v-85.333h-512v85.333zM597.333 341.334h-341.333v85.333h341.333v-85.333zM768 597.334h-512v85.333h512v-85.333z" />
<glyph unicode="&#xe6e0;" d="M213.333 384h597.333v85.333h-597.333v-85.333zM128 213.334h597.333v85.333h-597.333v-85.333zM298.667 640v-85.333h597.333v85.333h-597.333z" />
<glyph unicode="&#xe6e1;" d="M938.24 768c0 46.933-37.973 85.333-84.907 85.333h-682.667c-46.933 0-85.333-38.4-85.333-85.333v-512c0-46.933 38.4-85.333 85.333-85.333h597.333l170.667-170.667-0.427 768zM768 341.334h-512v85.333h512v-85.333zM768 469.334h-512v85.333h512v-85.333zM768 597.334h-512v85.333h512v-85.333z" />
<glyph unicode="&#xe6e2;" d="M853.333 938.667h-682.667v-85.333h682.667v85.333zM170.667-85.333h682.667v85.333h-682.667v-85.333zM853.333 768h-682.667c-46.933 0-85.333-38.4-85.333-85.333v-512c0-46.933 38.4-85.333 85.333-85.333h682.667c46.933 0 85.333 38.4 85.333 85.333v512c0 46.933-38.4 85.333-85.333 85.333zM512 650.667c52.907 0 96-43.093 96-96s-43.093-96-96-96-96 43.093-96 96 43.093 96 96 96zM725.333 213.334h-426.667v64c0 71.253 142.080 106.667 213.333 106.667s213.333-35.413 213.333-106.667v-64z" />
<glyph unicode="&#xe6e3;" d="M725.333 810.667h-42.667v-213.333h42.667v213.333zM640 725.334h-85.333v42.667h85.333v42.667h-128v-128h85.333v-42.667h-85.333v-42.667h128v128zM768 810.667v-213.333h42.667v85.333h85.333v128h-128zM853.333 725.334h-42.667v42.667h42.667v-42.667zM853.333 277.334c-53.333 0-104.533 8.533-152.32 24.32-14.933 4.693-31.573 1.28-43.093-10.24l-93.867-93.867c-120.747 61.44-219.733 160-281.173 281.173l93.867 94.293c11.52 11.093 14.933 27.733 10.24 42.667-15.787 47.787-24.32 98.987-24.32 152.32 0 23.467-19.2 42.667-42.667 42.667h-149.333c-23.467 0-42.667-19.2-42.667-42.667 0-400.64 324.693-725.333 725.333-725.333 23.467 0 42.667 19.2 42.667 42.667v149.333c0 23.467-19.2 42.667-42.667 42.667z" />
</font>
</defs>
</svg>
